Release Notes
Code:
Format                                   : AVI
Format/Info                              : Audio Video Interleave
Format profile                           : OpenDML
File size                                : 2.48 GiB
Duration                                 : 1h 43mn
Overall bit rate                         : 3 416 Kbps
Writing application                      : VirtualDubMod 1.5.10.2 (build 2540/release)
Writing library                          : VirtualDubMod build 2540/release

Video
ID                                       : 0
Format                                   : MPEG-4 Visual
Format profile                           : Advanced Simple@L5
Format settings, BVOP                    : 2
Format settings, QPel                    : No
Format settings, GMC                     : No warppoints
Format settings, Matrix                  : Default (H.263)
Muxing mode                              : Packed bitstream
Codec ID                                 : XVID
Codec ID/Hint                            : XviD
Duration                                 : 1h 43mn
Bit rate                                 : 3 021 Kbps
Width                                    : 1 280 pixels
Height                                   : 720 pixels
Display aspect ratio                     : 16:9
Frame rate                               : 23.976 fps
Color space                              : YUV
Chroma subsampling                       : 4:2:0
Bit depth                                : 8 bits
Scan type                                : Progressive
Compression mode                         : Lossy
Bits/(Pixel*Frame)                       : 0.137
Stream size                              : 2.19 GiB (88%)
Writing library                          : XviD 64

Audio
ID                                       : 1
Format                                   : AC-3
Format/Info                              : Audio Coding 3
Mode extension                           : CM (complete main)
Format settings, Endianness              : Big
Codec ID                                 : 2000
Duration                                 : 1h 43mn
Bit rate mode                            : Constant
Bit rate                                 : 384 Kbps
Channel(s)                               : 6 channels
Channel positions                        : Front: L C R, Side: L R, LFE
Sampling rate                            : 48.0 KHz
Bit depth                                : 16 bits
Compression mode                         : Lossy
Stream size                              : 285 MiB (11%)
Alignment                                : Split accross interleaves
Interleave, duration                     : 42 ms (1.00 video frame)
Interleave, preload duration             : 500 ms

http://www.imdb.com/title/tt1453405/


Storyline

Mike Wazowski and James P. Sullivan are an inseparable pair, but that wasn't always the case. From the moment these two mismatched monsters met they couldn't stand each other. "Monsters University" unlocks the door to how Mike and Sulley overcame their differences and became the best of friends.

Source Used iTUNES   - Thanks
Screens






Sample
Code:
http://www.sendspace.com/file/52ad6i
DownLoad

Single Links
Code:
http://rapidgator.net/file/120ee7d455a8a21f92c820bcfb62fe46/Monsters.avi.html

http://uploaded.net/file/k0zswzgj/Monsters.avi

http://extabit.com/file/279sobapdy61e/Monsters.avi
RapidGator
Code:
http://rapidgator.net/file/cf8bb8e509529549728ab8d8b390e6b1/Monsters.part1.rar.html
http://rapidgator.net/file/b6fdebbd9274f18cb48a012ec989cc8f/Monsters.part2.rar.html
Uploaded.to
Code:
http://uploaded.net/file/gjd0a5ol/Monsters.part1.rar
http://uploaded.net/file/rv7x3pmv/Monsters.part2.rar
ExtaBit
Code:
http://extabit.com/file/279sobapdy61u/Monsters.part1.rar
http://extabit.com/file/279sobapdx136/Monsters.part2.rar
NetLoad
Code:
http://netload.in/dateiiKd2jNBELt/Monsters.part1.rar.htm
http://netload.in/dateiDMdeU93MuK/Monsters.part2.rar.htm