Code:
Resident Evil Pack BluRay 10Bit 1080p DD5.1 H265-d3g

Titles:

Resident Evil - 2002 BluRay 10Bit 1080p DD5.1 H265-d3g
IMDb: http://www.imdb.com/title/tt0120804/

Resident Evil - Apocalypse 2004 BluRay 10Bit 1080p DD5.1 H265-d3g
IMDb: http://www.imdb.com/title/tt0318627/

Resident Evil - Extinction 2007 BluRay 10Bit 1080p DD5.1 H265-d3g
IMDb: http://www.imdb.com/title/tt0432021/

Resident Evil - Afterlife 2010 BluRay 10Bit 1080p DD5.1 H265-d3g
IMDb: http://www.imdb.com/title/tt1220634/

Resident Evil - Retribution 2012 BluRay 10Bit 1080p DD5.1 H265-d3g
IMDb: http://www.imdb.com/title/tt1855325/

Resident Evil - The Final Chapter 2016 BluRay 10Bit 1080p DD5.1 H265-d3g
IMDb: http://www.imdb.com/title/tt2592614/
Video

ID : 1

Format : HEVC

Format/Info : High Efficiency Video Coding

Format profile : Main 10@L4@Main

Codec ID : V_MPEGH/ISO/HEVC

Duration : 1 h 40 min

Bit rate : 3 310 kb/s

Width : 1 920 pixels

Height : 1 040 pixels

Display aspect ratio : 1.85:1

Frame rate mode : Constant

Frame rate : 23.976 (24000/1001) FPS

Color space : YUV

Chroma subsampling : 4:2:0

Bit depth : 10 bits

Bits/(Pixel*Frame) : 0.069

Stream size : 2.32 GiB (87%)

Default : Yes

Forced : No

Color range : Limited

Color primaries : BT.709

Transfer characteristics : BT.709

Matrix coefficients : BT.709

Audio

ID : 2

Format : AC-3

Format/Info : Audio Coding 3

Commercial name : Dolby Digital

Codec ID : A_AC3

Duration : 1 h 40 min

Bit rate mode : Constant

Bit rate : 448 kb/s

Channel(s) : 6 channels

Channel layout : L R C LFE Ls Rs

Sampling rate : 48.0 kHz

Frame rate : 31.250 FPS (1536 SPF)

Bit depth : 16 bits

Compression mode : Lossy

Stream size : 322 MiB (12%)

Language : English

Service kind : Complete Main

Default : Yes

Forced : No

Text #1

ID : 3

Format : VobSub

Codec ID : S_VOBSUB

Codec ID/Info : Picture based subtitle format used on DVDs

Duration : 1 h 28 min

Bit rate : 5 016 b/s

Count of elements : 666

Stream size : 3.18 MiB (0%)

Language : English

Default : No

Forced : No

Text #2

ID : 4

Format : VobSub

Codec ID : S_VOBSUB

Codec ID/Info : Picture based subtitle format used on DVDs

Duration : 1 h 39 min

Bit rate : 4 322 b/s

Count of elements : 1056

Stream size : 3.09 MiB (0%)

Language : English

Default : No

Forced : No

Text #3

ID : 5

Format : VobSub

Codec ID : S_VOBSUB

Codec ID/Info : Picture based subtitle format used on DVDs

Duration : 1 h 32 min

Bit rate : 5 136 b/s

Count of elements : 723

Stream size : 3.41 MiB (0%)

Language : French

Default : No

Forced : No

Text #4

ID : 6

Format : VobSub

Codec ID : S_VOBSUB

Codec ID/Info : Picture based subtitle format used on DVDs

Duration : 1 h 32 min

Bit rate : 5 086 b/s

Count of elements : 699

Stream size : 3.38 MiB (0%)

Language : Italian

Default : No

Forced : No

Text #5

ID : 7

Format : VobSub

Codec ID : S_VOBSUB

Codec ID/Info : Picture based subtitle format used on DVDs

Duration : 1 h 32 min

Bit rate : 4 700 b/s

Count of elements : 681

Stream size : 3.12 MiB (0%)

Language : Spanish

Default : No

Forced : No

Text #6

ID : 8

Format : VobSub

Codec ID : S_VOBSUB

Codec ID/Info : Picture based subtitle format used on DVDs

Duration : 1 h 40 min

Bit rate : 20.4 kb/s

Count of elements : 2092

Stream size : 14.7 MiB (1%)

Language : English

Default : No

Forced : No

Text #7

ID : 9

Format : VobSub

Codec ID : S_VOBSUB

Codec ID/Info : Picture based subtitle format used on DVDs

Duration : 1 h 34 min

Bit rate : 18.8 kb/s

Count of elements : 1557

Stream size : 12.7 MiB (0%)

Language : English

Default : No

Forced : No
Code:
http://nitroflare.com/view/7203EC55F43D8BC/Resident_Evil_2002_BluRay_10Bit_1080p_DD5.1_Multi_H265-d3g.mkv
http://nitroflare.com/view/730A4EAE92280C9/Resident_Evil_Afterlife_2010_BluRay_10Bit_1080p_DD5.1_H265-d3g.mkv
http://nitroflare.com/view/2D7B00CF8398995/Resident_Evil_Apocalypse_2004_Extended_BluRay_10Bit_1080p_DD5.1_H265-d3g.mkv
http://nitroflare.com/view/569308996A6AA6F/Resident_Evil_Extinction_2007_BluRay_10Bit_1080p_DD5.1_H265-d3g.mkv
http://nitroflare.com/view/7BB6E508C6B860A/Resident_Evil_Retribution_2012_BluRay_10Bit_1080p_DD5.1_H265-d3g.mkv
http://nitroflare.com/view/AD1381C322AD044/Resident_Evil_The_Final_Chapter_2017_BluRay_10Bit_1080p_DD5.1_Multi_H265-d3g.mkv