Code:
Nemesis 1-4 Movie Pack 720p BluRay x264

https://www.imdb.com/title/tt0107668/

General 
Complete name : Nemesis 2 Nebula 1995 Bdrip 720p x264
Format : Matroska 
Format version : Version 4 
File size : 2.95 GiB 
Duration : 1 h 24 min 
Overall bit rate : 5 004 kb/s 
Encoded date : UTC 2018-09-13T17:02:17Z 
Writing application : HandBrake 1.1.0 2018040700 
Writing library : Lavf57.7.2 

Video 
ID : 1 
Format : AVC 
Format/Info : Advanced Video Codec 
Format profile : Main@L3.1 
Format settings : CABAC / 4 Ref Frames 
Format settings, CABAC : Yes 
Format settings, RefFrames : 4 frames 
Codec ID : V_MPEG4/ISO/AVC 
Duration : 1 h 24 min 
Bit rate : 4 500 kb/s 
Width : 1 280 pixels 
Height : 720 pixels 
Display aspect ratio : 16:9 
Frame rate mode : Constant 
Frame rate : 24.000 FPS 
Color space : YUV 
Chroma subsampling : 4:2:0 
Bit depth : 8 bits 
Scan type : Progressive 
Bits/(Pixel*Frame) : 0.203 
Stream size : 2.59 GiB (88%) 
Writing library : x264 core 155 r2893 b00bcaf 
Default : Yes 
Forced : No 
Color range : Limited 
Color primaries : BT.709 
Transfer characteristics : BT.709 
Matrix coefficients : BT.709 

Audio 
ID : 2 
Format : AC-3 
Format/Info : Audio Coding 3 
Commercial name : Dolby Digital 
Codec ID : A_AC3 
Duration : 1 h 24 min 
Bit rate mode : Constant 
Bit rate : 512 kb/s 
Channel(s) : 2 channels 
Channel layout : L R 
Sampling rate : 48.0 kHz 
Frame rate : 31.250 FPS (1536 SPF) 
Bit depth : 16 bits 
Compression mode : Lossy 
Stream size : 309 MiB (10%) 
Title : Stereo 
Language : English 
Service kind : Complete Main 
Default : Yes 
Forced : No
Code:
http://nitroflare.com/view/553ECF891484617/Nemesis_1992_720p_BluRay_x264-iFPD.mkv
http://nitroflare.com/view/B3005FA96B841E7/Nemesis_2_Nebula_1995_Bdrip_720p_x264.mkv
http://nitroflare.com/view/86BF0174ACBE42A/Nemesis_4_Death_Angel_1996_Bdrip_720p_x264.mkv
http://nitroflare.com/view/A307CE18111E56C/Nemesis_III_Prey_Harder_1996_Bdrip_720p_x264.mkv