CHECK MOVIE QUALITY HERE

DOWNLOAD SAMPLE | 13.23 MB SIZE
Code:
http://extabit.com/file/279si4kbzekd5/Pacific.Rim.2013.Cam.XviD.Feel-Free-Sample.avi
http://www.secureupload.eu/qwwstvsz8q7e/Pacific.Rim.2013.Cam.XviD.Feel-Free-Sample.avi
http://rapidgator.net/file/f6520c9e9a9471bd831f25e7b4735e81/Pacific.Rim.2013.Cam.XviD.Feel-Free-Sample.avi.html
http://lumfile.se/99o932tqzqwa/Pacific.Rim.2013.Cam.XviD.Feel-Free-Sample.avi.html
http://uploaded.net/file/zt4o9izu/Pacific.Rim.2013.Cam.XviD.Feel-Free-Sample.avi
http://www.netload.in/dateiDfVoPtvuz7/Pacific.Rim.2013.Cam.XviD.Feel-Free-Sample.avi.htm
SCREENS




Pacific Rim (2013) Cam XviD Feel-Free

RELEASE INFO
Code:
Source:TELESYNC x264-RAVERS / THC Thanks
Sample:Never
Encoder:Tony


Format                                   : AVI
Format/Info                              : Audio Video Interleave
File size                                : 1.56 GiB
Duration                                 : 2h 2mn
Overall bit rate                         : 1 826 Kbps

Video
ID                                       : 0
Format                                   : MPEG-4 Visual
Format profile                           : Advanced Simple@L5
Format settings, BVOP                    : 1
Format settings, QPel                    : No
Format settings, GMC                     : No warppoints
Format settings, Matrix                  : Default (H.263)
Codec ID                                 : XVID
Codec ID/Hint                            : XviD
Duration                                 : 2h 2mn
Bit rate                                 : 1 654 Kbps
Width                                    : 640 pixels
Height                                   : 344 pixels
Display aspect ratio                     : 1.860
Frame rate                               : 29.970 fps
Color space                              : YUV
Chroma subsampling                       : 4:2:0
Bit depth                                : 8 bits
Scan type                                : Progressive
Compression mode                         : Lossy
Bits/(Pixel*Frame)                       : 0.251
Stream size                              : 1.41 GiB (91%)
Writing library                          : XviD 1.2.1 (UTC 2008-12-04)

Audio
ID                                       : 1
Format                                   : AC-3
Format/Info                              : Audio Coding 3
Mode extension                           : CM (complete main)
Codec ID                                 : 2000
Duration                                 : 2h 2mn
Bit rate mode                            : Constant
Bit rate                                 : 160 Kbps
Channel(s)                               : 2 channels
Channel positions                        : Front: L R
Sampling rate                            : 48.0 KHz
Bit depth                                : 16 bits
Compression mode                         : Lossy
Stream size                              : 140 MiB (9%)
Alignment                                : Aligned on interleaves
Interleave, duration                     : 33 ms (1.00 video frame)
Interleave, preload duration             : 512 ms
DOWNLOAD MOVIE | 1.56 GB SIZE

SINGLE LINK | NO EXTRACTION

SECUREUPLOAD
Code:
http://www.secureupload.eu/xlg5yyuu8e0v/Pacific.Rim.2013.Cam.XviD.Feel-Free.avi
EXTABIT
Code:
http://extabit.com/file/279si4kbzenex/Pacific.Rim.2013.Cam.XviD.Feel-Free.avi
RAPIDGATOR
Code:
http://rapidgator.net/file/4559ee5f5afcdb4857843fc1397b9138/Pacific.Rim.2013.Cam.XviD.Feel-Free.avi.html
LUMFILE
Code:
http://lumfile.se/vqaf2t58lf74/Pacific.Rim.2013.Cam.XviD.Feel-Free.avi.html
UPLOADED
Code:
http://uploaded.net/file/dh6kxhsn/Pacific.Rim.2013.Cam.XviD.Feel-Free.avi
NETLOAD
Code:
http://www.netload.in/dateiSahGM76HHC/Pacific.Rim.2013.Cam.XviD.Feel-Free.avi.htm
IMDB INFO
Code:
Genre		: Action, Adventure, Fantasy
Actors		: Charlie Hunnam, Idris Elba, Rinko Kikuchi
Plot		: As a war between humankind and monstrous sea creatures wages on, a former pilot and a trainee are paired up to drive a seemingly obsolete special weapon in a desperate effort to save the world from the apocalypse.
IMDB link	: http://www.imdb.com/title/tt1663662/
"Thanks" for reading and downloading from my thread