Release Notes
Code:
Source: Italian x264 RAVERS MKV...THANKS
Audio: A Very Good Friends...THANKS

http://www.imdb.com/title/tt1663662/

Format                           : AVI
Format/Info                      : Audio Video Interleave
File size                        : 1.24 GiB
Duration                         : 2h 2mn
Overall bit rate                 : 1 449 Kbps
Writing library                  : VirtualDub build 35390/release

Video
ID                               : 0
Format                           : MPEG-4 Visual
Format profile                   : Advanced Simple@L5
Format settings, BVOP            : Yes
Format settings, QPel            : No
Format settings, GMC             : No warppoints
Format settings, Matrix          : Default (H.263)
Muxing mode                      : Packed bitstream
Codec ID                         : XVID
Codec ID/Hint                    : XviD
Duration                         : 2h 2mn
Bit rate                         : 1 310 Kbps
Width                            : 720 pixels
Height                           : 384 pixels
Display aspect ratio             : 1.875
Frame rate                       : 29.333 fps
Color space                      : YUV
Chroma subsampling               : 4:2:0
Bit depth                        : 8 bits
Scan type                        : Progressive
Bits/(Pixel*Frame)               : 0.161
Stream size                      : 1.12 GiB (90%)
Writing library                  : XviD 1.2.1 (UTC 2008-12-04)

Audio
ID                               : 1
Format                           : MPEG Audio
Format version                   : Version 1
Format profile                   : Layer 3
Mode                             : Joint stereo
Mode extension                   : MS Stereo
Codec ID                         : 55
Codec ID/Hint                    : MP3
Duration                         : 2h 2mn
Bit rate mode                    : Constant
Bit rate                         : 128 Kbps
Channel(s)                       : 2 channels
Sampling rate                    : 48.0 KHz
Stream size                      : 112 MiB (9%)
Alignment                        : Split accross interleaves
Interleave, duration             : 34 ms (1.00 video frame)
Interleave, preload duration     : 500 ms
Writing library                  : LAME

Workdone:
Great Italian video...didnt do so much.. but adjust the saturation, levels, lower the contrast. Could of done alot more to it... but I wanted to get this out as soon as I can.

Audio:
Got some cam audio from a good friend.... but it had issues like most cam's. Took around 2 hours getting it all the EQ bands adjusted and sync. Check Sample

THC CAM RATING:
V8 A5.5
Screens






Sample
Code:
http://www.sendspace.com/file/qhxqz2
DownLoad

NetLoad
Code:
http://netload.in/datei0EU1cJgvCf/Pacific.Rim.2013.CAM.XviD-THC.avi.htm
ExtaBit
Code:
http://extabit.com/file/279si4k331vfp/Pacific.Rim.2013.CAM.XviD-THC.avi
Uploaded.to
Code:
http://uploaded.net/file/og9tci16/Pacific.Rim.2013.CAM.XviD-THC.rar
RapidGator
Code:
http://rapidgator.net/file/ea10e44ac77fe7e73dd257cd86efa0f4/Pacific.Rim.2013.CAM.XviD-THC.avi.html