Release Notes
Code:
Format                                   : AVI
Format/Info                              : Audio Video Interleave
File size                                : 1.41 GiB
Duration                                 : 2h 2mn
Overall bit rate                         : 1 652 Kbps
Writing application                      : VirtualDubMod 1.5.10.2 (build 2540/release)
Writing library                          : VirtualDubMod build 2540/release

Video
ID                                       : 0
Format                                   : MPEG-4 Visual
Format profile                           : Advanced Simple@L5
Format settings, BVOP                    : 2
Format settings, QPel                    : No
Format settings, GMC                     : No warppoints
Format settings, Matrix                  : Default (H.263)
Muxing mode                              : Packed bitstream
Codec ID                                 : XVID
Codec ID/Hint                            : XviD
Duration                                 : 2h 2mn
Bit rate                                 : 1 513 Kbps
Width                                    : 720 pixels
Height                                   : 368 pixels
Display aspect ratio                     : 1.957
Frame rate                               : 29.383 fps
Color space                              : YUV
Chroma subsampling                       : 4:2:0
Bit depth                                : 8 bits
Scan type                                : Progressive
Compression mode                         : Lossy
Bits/(Pixel*Frame)                       : 0.194
Stream size                              : 1.29 GiB (92%)
Writing library                          : XviD 64

Audio
ID                                       : 1
Format                                   : MPEG Audio
Format version                           : Version 1
Format profile                           : Layer 3
Mode                                     : Joint stereo
Mode extension                           : MS Stereo
Codec ID                                 : 55
Codec ID/Hint                            : MP3
Duration                                 : 2h 2mn
Bit rate mode                            : Constant
Bit rate                                 : 128 Kbps
Channel(s)                               : 2 channels
Sampling rate                            : 48.0 KHz
Compression mode                         : Lossy
Stream size                              : 112 MiB (8%)
Alignment                                : Split accross interleaves
Interleave, duration                     : 34 ms (1.00 video frame)
Interleave, preload duration             : 500 ms
Writing library                          : LAME

Source Used      Pacific Rim 2013 iTA MD TELESYNC x264-RAVERS / THC                 - Thanks


http://www.imdb.com/title/tt1663662


As a war between humankind and monstrous sea creatures wages on, a former pilot and a trainee are paired up to drive a seemingly obsolete special weapon in a desperate effort to save the world from the apocalypse.


Heres reasons for READNFO


Basically its to let you know there are a couple of dark spots throughout and respect to THC on bringing the audio but for the moaners its real tinny and hollow BUT understandable.With line added it probably be a real nice release wink.gif


Cropped ,resized ,sharpened,dropped hue ,changed rgb slightly and thats about it
Screens






Sample
Code:
http://www.sendspace.com/file/2prh3g
DownLoad

NetLoad
Code:
http://netload.in/dateiq0jubXwqI6/Pacific.avi.htm
ExtaBit
Code:
http://extabit.com/file/279si4k331vg5/Pacific.avi
Uploaded.to
Code:
http://uploaded.net/file/j0las6f7/Pacific.avi
RapidGator
Code:
http://rapidgator.net/file/c91e8609b3d349f26ce398b7627efb66/Pacific.avi.html