Code:
General
Format                      : Matroska
Format version              : Version 2
File size                   : 2.54 GiB
Duration                    : 2 h 9 min
Overall bit rate            : 2 802 kb/s
Encoded date                : UTC 2012-10-17 17:44:28
Writing application         : mkvmerge v4.8.0 ('I Got The...') built on May 24 2011 03:12:58
Writing library             : libebml v1.2.0 + libmatroska v1.1.0

Video
ID                          : 1
Format                      : AVC
Format/Info                 : Advanced Video Codec
Format profile              : High@L4.1
Format settings, CABAC      : Yes
Format settings, RefFrames  : 5 frames
Codec ID                    : V_MPEG4/ISO/AVC
Duration                    : 2 h 9 min
Bit rate                    : 2 417 kb/s
Width                       : 1 280 pixels
Height                      : 568 pixels
Display aspect ratio        : 2.25:1
Frame rate mode             : Constant
Frame rate                  : 24.000 FPS
Color space                 : YUV
Chroma subsampling          : 4:2:0
Bit depth                   : 8 bits
Scan type                   : Progressive
Bits/(Pixel*Frame)          : 0.139
Stream size                 : 2.14 GiB (84%)
Writing library             : x264 core 125 r2208 d9d2288
Encoding settings           : cabac=1 / ref=5 / deblock=1:0:0 / analyse=0x3:0x113 / me=umh / subme=9 / psy=1 / psy_rd=1.00:0.00 / mixed_ref=1 / me_range=16 / chroma_me=1 / trellis=1 / 8x8dct=1 / cqm=0 / deadzone=21,11 / fast_pskip=1 / chroma_qp_offset=-2 / threads=12 / lookahead_threads=2 / sliced_threads=0 / nr=0 / decimate=1 / interlaced=0 / bluray_compat=0 / constrained_intra=0 / bframes=5 / b_pyramid=2 / b_adapt=1 / b_bias=0 / direct=1 / weightb=1 / open_gop=0 / weightp=2 / keyint=250 / keyint_min=24 / scenecut=40 / intra_refresh=0 / rc_lookahead=40 / rc=2pass / mbtree=1 / bitrate=2417 / ratetol=1.0 / qcomp=0.60 / qpmin=0 / qpmax=69 / qpstep=4 / cplxblur=20.0 / qblur=0.5 / vbv_maxrate=20000 / vbv_bufsize=15000 / nal_hrd=none / ip_ratio=1.40 / aq=1:1.00
Language                    : English
Default                     : Yes
Forced                      : No
Color range                 : Limited
Color primaries             : BT.709
Transfer characteristics    : BT.709
Matrix coefficients         : BT.709

Audio
ID                          : 2
Format                      : AC-3
Format/Info                 : Audio Coding 3
Format settings, Endianness : Big
Codec ID                    : A_AC3
Duration                    : 2 h 9 min
Bit rate mode               : Constant
Bit rate                    : 384 kb/s
Channel(s)                  : 6 channels
Channel positions           : Front: L C R, Side: L R, LFE
Sampling rate               : 48.0 kHz
Frame rate                  : 31.250 FPS (1536 SPF)
Bit depth                   : 16 bits
Compression mode            : Lossy
Stream size                 : 356 MiB (14%)
Language                    : English
Service kind                : Complete Main
Default                     : Yes
Forced                      : Yes

Text
ID                          : 3
Format                      : UTF-8
Codec ID                    : S_TEXT/UTF8
Codec ID/Info               : UTF-8 Plain Text
Language                    : English
Default                     : No
Forced                      : No

Menu
00:00:00.000                : en:01. Titles
00:02:22.750                : en:02. Darta Hoon ...
00:06:25.417                : en:03. Call for Spying
00:18:47.500                : en:04. Ghastly Moment Turns Love
00:27:35.667                : en:05. Yeh Kasoor ...
00:32:55.000                : en:06. To The Mission
00:37:08.333                : en:07. Maula ...
00:41:53.083                : en:08. Shoot Out
00:52:36.625                : en:09. Search For The Data
01:05:22.667                : en:10. Love Uncovered
01:13:58.250                : en:11. Abhi Abhi ...
01:19:26.292                : en:12. Moments of Love
01:33:32.000                : en:13. Yeh Jism ...
01:35:19.708                : en:14. Play Exposed
01:49:28.042                : en:15. End Of Kabir
01:58:07.917                : en:16. Truth Realize
02:04:26.667                : en:17. End Credits

SINGLE DIRECT FAST LINKS
Code:
http://www.heroupload.us/64130e70310378d5/Jism.2.2012.720p.BluRay.nHD.x264-NhaNc3.mkv
Code:
http://filefloater.com/29Lx/Jism.2.2012.720p.BluRay.nHD.x264-NhaNc3.mkv

Buy Premium From My Links & Support Me