Code:
General
Unique ID                   : 174176650552724631128301532406568938896 (0x830933E392FD681E8E4ECA91D02F6D90)
Complete name               : E:\Download C 3\Haider.2014.720p.BluRay.nHD.x264-NhaNc3.mkv
Format                      : Matroska
Format version              : Version 2
File size                   : 3.22 GiB
Duration                    : 2 h 41 min
Overall bit rate            : 2 861 kb/s
Encoded date                : UTC 2014-12-27 12:01:33
Writing application         : mkvmerge v4.9.1 ('Ich will') built on Jul 11 2011 23:53:15
Writing library             : libebml v1.2.1 + libmatroska v1.1.1

Video
ID                          : 1
Format                      : AVC
Format/Info                 : Advanced Video Codec
Format profile              : High@L4.1
Format settings, CABAC      : Yes
Format settings, RefFrames  : 8 frames
Muxing mode                 : Header stripping
Codec ID                    : V_MPEG4/ISO/AVC
Duration                    : 2 h 41 min
Bit rate                    : 2 474 kb/s
Width                       : 1 280 pixels
Height                      : 544 pixels
Display aspect ratio        : 2.35:1
Frame rate mode             : Constant
Frame rate                  : 23.976 FPS
Color space                 : YUV
Chroma subsampling          : 4:2:0
Bit depth                   : 8 bits
Scan type                   : Progressive
Bits/(Pixel*Frame)          : 0.148
Stream size                 : 2.73 GiB (85%)
Writing library             : x264 core 130 r2273 b3065e6
Encoding settings           : cabac=1 / ref=8 / deblock=1:0:0 / analyse=0x3:0x113 / me=umh / subme=9 / psy=1 / psy_rd=1.00:0.00 / mixed_ref=1 / me_range=16 / chroma_me=1 / trellis=1 / 8x8dct=1 / cqm=0 / deadzone=21,11 / fast_pskip=1 / chroma_qp_offset=-2 / threads=8 / lookahead_threads=1 / sliced_threads=0 / nr=0 / decimate=1 / interlaced=0 / bluray_compat=0 / constrained_intra=0 / bframes=5 / b_pyramid=2 / b_adapt=1 / b_bias=0 / direct=1 / weightb=1 / open_gop=0 / weightp=2 / keyint=250 / keyint_min=23 / scenecut=40 / intra_refresh=0 / rc_lookahead=40 / rc=2pass / mbtree=1 / bitrate=2474 / ratetol=1.0 / qcomp=0.60 / qpmin=0 / qpmax=69 / qpstep=4 / cplxblur=20.0 / qblur=0.5 / vbv_maxrate=20000 / vbv_bufsize=15000 / nal_hrd=none / ip_ratio=1.40 / aq=1:1.00
Language                    : English
Default                     : Yes
Forced                      : No
Color range                 : Limited
Color primaries             : BT.709
Transfer characteristics    : BT.709
Matrix coefficients         : BT.709

Audio
ID                          : 2
Format                      : AC-3
Format/Info                 : Audio Coding 3
Format settings, Endianness : Big
Muxing mode                 : Header stripping
Codec ID                    : A_AC3
Duration                    : 2 h 41 min
Bit rate mode               : Constant
Bit rate                    : 384 kb/s
Channel(s)                  : 6 channels
Channel positions           : Front: L C R, Side: L R, LFE
Sampling rate               : 48.0 kHz
Frame rate                  : 31.250 FPS (1536 SPF)
Bit depth                   : 16 bits
Compression mode            : Lossy
Stream size                 : 443 MiB (13%)
Language                    : Hindi
Service kind                : Complete Main
Default                     : Yes
Forced                      : No

Text
ID                          : 3
Format                      : VobSub
Muxing mode                 : zlib
Codec ID                    : S_VOBSUB
Codec ID/Info               : Picture based subtitle format used on DVDs
Title                       : Track 1 [DDR]
Language                    : English
Default                     : Yes
Forced                      : No

Menu
00:00:00.000                : en:00:00:00.000
00:14:13.853                : en:00:14:13.853
00:37:49.934                : en:00:37:49.934
00:41:37.495                : en:00:41:37.495
00:43:41.077                : en:00:43:41.077
00:59:20.557                : en:00:59:20.557
01:02:55.230                : en:01:02:55.230
01:06:47.462                : en:01:06:47.462
01:11:18.483                : en:01:11:18.483
01:21:46.902                : en:01:21:46.902
01:33:30.939                : en:01:33:30.939
01:37:36.476                : en:01:37:36.476
01:44:56.916                : en:01:44:56.916
01:54:27.069                : en:01:54:27.069
02:02:44.357                : en:02:02:44.357
02:10:08.217                : en:02:10:08.217
02:14:52.084                : en:02:14:52.084
02:20:18.410                : en:02:20:18.410
02:29:38.803                : en:02:29:38.803
02:34:38.269                : en:02:34:38.269


SINGLE DIRECT FAST LINKS
Code:
http://www.heroupload.us/3abf8a4510c9911d/Haider.2014.720p.BluRay.nHD.x264-NhaNc3.mkv
Code:
http://filefloater.com/29Ls/Haider.2014.720p.BluRay.nHD.x264-NhaNc3.mkv
Buy Premium From My Links & Support Me