Code:
General
Unique ID                   : 219713029162294270761521123843794476753 (0xA54B30B12E5BCED083D6DEA2545F1ED1)
Complete name               : E:\Download C 3\Ek.The.Tiger.2012.720p.BluRay.nHD.x264-NhaNc3.mkv
Format                      : Matroska
Format version              : Version 2
File size                   : 2.83 GiB
Duration                    : 2 h 13 min
Overall bit rate            : 3 045 kb/s
Movie name                  : Ek Tha Tiger (2012)
Encoded date                : UTC 2012-10-11 20:55:08
Writing application         : mkvmerge v4.8.0 ('I Got The...') built on May 24 2011 03:12:58
Writing library             : libebml v1.2.0 + libmatroska v1.1.0

Video
ID                          : 1
Format                      : AVC
Format/Info                 : Advanced Video Codec
Format profile              : High@L4.1
Format settings, CABAC      : Yes
Format settings, RefFrames  : 8 frames
Muxing mode                 : Header stripping
Codec ID                    : V_MPEG4/ISO/AVC
Duration                    : 2 h 13 min
Bit rate                    : 2 626 kb/s
Width                       : 1 280 pixels
Height                      : 544 pixels
Display aspect ratio        : 2.35:1
Frame rate mode             : Constant
Frame rate                  : 24.000 FPS
Color space                 : YUV
Chroma subsampling          : 4:2:0
Bit depth                   : 8 bits
Scan type                   : Progressive
Bits/(Pixel*Frame)          : 0.157
Stream size                 : 2.42 GiB (85%)
Writing library             : x264 core 125 r2208 d9d2288
Encoding settings           : cabac=1 / ref=8 / deblock=1:-1:-1 / analyse=0x3:0x113 / me=umh / subme=10 / psy=1 / psy_rd=1.00:0.00 / mixed_ref=1 / me_range=16 / chroma_me=1 / trellis=2 / 8x8dct=1 / cqm=0 / deadzone=21,11 / fast_pskip=1 / chroma_qp_offset=-2 / threads=12 / lookahead_threads=2 / sliced_threads=0 / nr=0 / decimate=1 / interlaced=0 / bluray_compat=0 / constrained_intra=0 / bframes=3 / b_pyramid=0 / b_adapt=2 / b_bias=0 / direct=3 / weightb=1 / open_gop=0 / weightp=2 / keyint=240 / keyint_min=24 / scenecut=40 / intra_refresh=0 / rc_lookahead=40 / rc=2pass / mbtree=0 / bitrate=2626 / ratetol=1.0 / qcomp=0.60 / qpmin=10 / qpmax=51 / qpstep=4 / cplxblur=20.0 / qblur=0.5 / vbv_maxrate=50000 / vbv_bufsize=50000 / nal_hrd=none / ip_ratio=1.40 / pb_ratio=1.30 / aq=1:1.00
Language                    : English
Default                     : Yes
Forced                      : No

Audio
ID                          : 2
Format                      : AC-3
Format/Info                 : Audio Coding 3
Format settings, Endianness : Big
Muxing mode                 : Header stripping
Codec ID                    : A_AC3
Duration                    : 2 h 13 min
Bit rate mode               : Constant
Bit rate                    : 384 kb/s
Channel(s)                  : 6 channels
Channel positions           : Front: L C R, Side: L R, LFE
Sampling rate               : 48.0 kHz
Frame rate                  : 31.250 FPS (1536 SPF)
Bit depth                   : 16 bits
Compression mode            : Lossy
Stream size                 : 365 MiB (13%)
Language                    : Hindi
Service kind                : Complete Main
Default                     : Yes
Forced                      : No

Text #1
ID                          : 3
Format                      : PGS
Muxing mode                 : zlib
Codec ID                    : S_HDMV/PGS
Codec ID/Info               : Picture based subtitle format used on BDs/HD-DVDs
Language                    : English
Default                     : No
Forced                      : No

Text #2
ID                          : 4
Format                      : PGS
Muxing mode                 : zlib
Codec ID                    : S_HDMV/PGS
Codec ID/Info               : Picture based subtitle format used on BDs/HD-DVDs
Language                    : Arabic
Default                     : No
Forced                      : No

Text #3
ID                          : 5
Format                      : PGS
Muxing mode                 : zlib
Codec ID                    : S_HDMV/PGS
Codec ID/Info               : Picture based subtitle format used on BDs/HD-DVDs
Language                    : French
Default                     : No
Forced                      : No

Text #4
ID                          : 6
Format                      : PGS
Muxing mode                 : zlib
Codec ID                    : S_HDMV/PGS
Codec ID/Info               : Picture based subtitle format used on BDs/HD-DVDs
Language                    : dum
Default                     : No
Forced                      : No

Menu
00:00:00.000                : :01. War of The Worlds
00:03:16.625                : :02. Death Wish
00:12:35.083                : :03. The Assignment
00:19:20.167                : :04. The Nutty Professor
00:33:11.750                : :05. Date Night
00:37:31.792                : :06. Shall We Dance
00:42:09.833                : :07. Banjaara...
00:45:54.000                : :08. The Stars Looks Down
00:53:28.958                : :09. Spy Game
00:59:31.917                : :10. Moment of Truth
01:06:14.792                : :11. They Meet Again
01:16:52.625                : :12. Saiyaara...
01:19:11.833                : :13. The Great Escape
01:36:18.792                : :14. Laapata...
01:40:29.917                : :15. At Close Range
01:54:36.875                : :16. True Lies
01:57:42.000                : :17. Fugitives
02:08:06.458                : :18. Mashallah...


SINGLE DIRECT FAST LINKS
Code:
http://www.heroupload.us/268765f2e169f7c2/Ek.The.Tiger.2012.720p.BluRay.nHD.x264-NhaNc3.mkv
Code:
http://filefloater.com/29Lu/Ek.The.Tiger.2012.720p.BluRay.nHD.x264-NhaNc3.mkv

Buy Premium From My Links & Support Me