Code:
General
Unique ID                   : 199518033953466821762446444915450461656 (0x9619C68DF58C75A5AE9427C535FC3DD8)
Complete name               : E:\Download C 3\Darr.1993.720p.BluRay.nHD.x264-NhaNc3.mkv
Format                      : Matroska
Format version              : Version 2
File size                   : 3.52 GiB
Duration                    : 2 h 56 min
Overall bit rate            : 2 846 kb/s
Encoded date                : UTC 2011-09-09 17:55:37
Writing application         : mkvmerge v4.9.1 ('Ich will') built on Jul 11 2011 23:53:15
Writing library             : libebml v1.2.1 + libmatroska v1.1.1

Video
ID                          : 1
Format                      : AVC
Format/Info                 : Advanced Video Codec
Format profile              : High@L4.1
Format settings, CABAC      : Yes
Format settings, RefFrames  : 5 frames
Codec ID                    : V_MPEG4/ISO/AVC
Duration                    : 2 h 56 min
Bit rate                    : 2 460 kb/s
Width                       : 1 280 pixels
Height                      : 544 pixels
Display aspect ratio        : 2.35:1
Frame rate mode             : Constant
Frame rate                  : 24.000 FPS
Color space                 : YUV
Chroma subsampling          : 4:2:0
Bit depth                   : 8 bits
Scan type                   : Progressive
Bits/(Pixel*Frame)          : 0.147
Stream size                 : 2.97 GiB (85%)
Writing library             : x264 core 116 r2044 392e762
Encoding settings           : cabac=1 / ref=5 / deblock=1:0:0 / analyse=0x3:0x113 / me=umh / subme=9 / psy=1 / psy_rd=1.00:0.00 / mixed_ref=1 / me_range=16 / chroma_me=1 / trellis=1 / 8x8dct=1 / cqm=0 / deadzone=21,11 / fast_pskip=1 / chroma_qp_offset=-2 / threads=12 / sliced_threads=0 / nr=0 / decimate=1 / interlaced=0 / bluray_compat=0 / constrained_intra=0 / bframes=5 / b_pyramid=2 / b_adapt=1 / b_bias=0 / direct=1 / weightb=1 / open_gop=0 / weightp=2 / keyint=250 / keyint_min=24 / scenecut=40 / intra_refresh=0 / rc_lookahead=40 / rc=2pass / mbtree=1 / bitrate=2460 / ratetol=1.0 / qcomp=0.60 / qpmin=0 / qpmax=69 / qpstep=4 / cplxblur=20.0 / qblur=0.5 / vbv_maxrate=20000 / vbv_bufsize=15000 / nal_hrd=none / ip_ratio=1.40 / aq=1:1.00
Language                    : English
Default                     : Yes
Forced                      : No
Color range                 : Limited
Color primaries             : BT.709
Transfer characteristics    : BT.709
Matrix coefficients         : BT.709

Audio
ID                          : 2
Format                      : AC-3
Format/Info                 : Audio Coding 3
Format settings, Endianness : Big
Codec ID                    : A_AC3
Duration                    : 2 h 56 min
Bit rate mode               : Constant
Bit rate                    : 384 kb/s
Channel(s)                  : 6 channels
Channel positions           : Front: L C R, Side: L R, LFE
Sampling rate               : 48.0 kHz
Frame rate                  : 31.250 FPS (1536 SPF)
Bit depth                   : 16 bits
Compression mode            : Lossy
Stream size                 : 486 MiB (13%)
Language                    : English
Service kind                : Complete Main
Default                     : Yes
Forced                      : Yes

Text
ID                          : 3
Format                      : UTF-8
Codec ID                    : S_TEXT/UTF8
Codec ID/Info               : UTF-8 Plain Text
Default                     : Yes
Forced                      : No

Menu
00:00:00.000                : en:00:00:00.000
00:02:31.958                : en:00:02:31.958
00:05:05.542                : en:00:05:05.542
00:07:55.333                : en:00:07:55.333
00:18:53.792                : en:00:18:53.792
00:24:33.875                : en:00:24:33.875
00:28:59.042                : en:00:28:59.042
00:31:19.833                : en:00:31:19.833
00:31:54.500                : en:00:31:54.500
00:43:37.542                : en:00:43:37.542
00:48:44.125                : en:00:48:44.125
00:51:01.125                : en:00:51:01.125
00:58:17.125                : en:00:58:17.125
01:04:08.083                : en:01:04:08.083
01:14:31.083                : en:01:14:31.083
01:25:28.083                : en:01:25:28.083
01:31:08.708                : en:01:31:08.708
01:35:33.625                : en:01:35:33.625
01:36:30.250                : en:01:36:30.250
01:46:38.625                : en:01:46:38.625
01:51:47.625                : en:01:51:47.625
02:02:00.917                : en:02:02:00.917
02:10:26.750                : en:02:10:26.750
02:18:10.458                : en:02:18:10.458
02:24:13.167                : en:02:24:13.167
02:33:35.917                : en:02:33:35.917
02:39:44.083                : en:02:39:44.083
02:50:34.500                : en:02:50:34.500
00:10:00.000                : en:00:10:00.000


SINGLE DIRECT FAST LINKS
Code:
http://www.heroupload.us/7fce22fbb04d1281/Darr.1993.720p.BluRay.nHD.x264-NhaNc3.mkv
Code:
http://filefloater.com/29Lp/Darr.1993.720p.BluRay.nHD.x264-NhaNc3.mkv
Buy Premium From My Links & Support Me