Code:
General
Unique ID                   : 227971256038777426669048115032560533460 (0xAB81AAB6732F056C9C82D9C4FFB47FD4)
Complete name               : E:\Download C 3\CHANDNI.1989.720p.BluRay.nHD.x264-NhaNc3.mkv
Format                      : Matroska
Format version              : Version 2
File size                   : 3.52 GiB
Duration                    : 2 h 59 min
Overall bit rate            : 2 801 kb/s
Encoded date                : UTC 2013-10-27 11:22:35
Writing application         : mkvmerge v4.9.1 ('Ich will') built on Jul 11 2011 23:53:15
Writing library             : libebml v1.2.1 + libmatroska v1.1.1

Video
ID                          : 1
Format                      : AVC
Format/Info                 : Advanced Video Codec
Format profile              : High@L4.1
Format settings, CABAC      : Yes
Format settings, RefFrames  : 8 frames
Codec ID                    : V_MPEG4/ISO/AVC
Duration                    : 2 h 59 min
Bit rate                    : 2 415 kb/s
Width                       : 1 280 pixels
Height                      : 544 pixels
Display aspect ratio        : 2.35:1
Frame rate mode             : Constant
Frame rate                  : 24.000 FPS
Color space                 : YUV
Chroma subsampling          : 4:2:0
Bit depth                   : 8 bits
Scan type                   : Progressive
Bits/(Pixel*Frame)          : 0.145
Stream size                 : 2.96 GiB (84%)
Writing library             : x264 core 130 r2273 b3065e6
Encoding settings           : cabac=1 / ref=8 / deblock=1:0:0 / analyse=0x3:0x113 / me=umh / subme=9 / psy=1 / psy_rd=1.00:0.00 / mixed_ref=1 / me_range=16 / chroma_me=1 / trellis=1 / 8x8dct=1 / cqm=0 / deadzone=21,11 / fast_pskip=1 / chroma_qp_offset=-2 / threads=8 / lookahead_threads=1 / sliced_threads=0 / nr=0 / decimate=1 / interlaced=0 / bluray_compat=0 / constrained_intra=0 / bframes=5 / b_pyramid=2 / b_adapt=1 / b_bias=0 / direct=1 / weightb=1 / open_gop=0 / weightp=2 / keyint=250 / keyint_min=23 / scenecut=40 / intra_refresh=0 / rc_lookahead=40 / rc=2pass / mbtree=1 / bitrate=2415 / ratetol=1.0 / qcomp=0.60 / qpmin=0 / qpmax=69 / qpstep=4 / cplxblur=20.0 / qblur=0.5 / vbv_maxrate=20000 / vbv_bufsize=15000 / nal_hrd=none / ip_ratio=1.40 / aq=1:1.00
Language                    : English
Default                     : Yes
Forced                      : No
Color range                 : Limited
Color primaries             : BT.709
Transfer characteristics    : BT.709
Matrix coefficients         : BT.709

Audio
ID                          : 2
Format                      : AC-3
Format/Info                 : Audio Coding 3
Format settings, Endianness : Big
Codec ID                    : A_AC3
Duration                    : 2 h 59 min
Bit rate mode               : Constant
Bit rate                    : 384 kb/s
Channel(s)                  : 6 channels
Channel positions           : Front: L C R, Side: L R, LFE
Sampling rate               : 48.0 kHz
Frame rate                  : 31.250 FPS (1536 SPF)
Bit depth                   : 16 bits
Compression mode            : Lossy
Stream size                 : 494 MiB (14%)
Language                    : English
Service kind                : Complete Main
Default                     : Yes
Forced                      : Yes

Menu
00:00:00.000                : en:00:00:00.000
00:05:24.458                : en:00:05:24.458
00:11:03.833                : en:00:11:03.833
00:21:52.833                : en:00:21:52.833
00:26:23.583                : en:00:26:23.583
00:30:41.542                : en:00:30:41.542
00:32:42.208                : en:00:32:42.208
00:36:55.833                : en:00:36:55.833
00:40:11.458                : en:00:40:11.458
00:49:02.250                : en:00:49:02.250
00:58:33.542                : en:00:58:33.542
01:03:43.042                : en:01:03:43.042
01:08:47.542                : en:01:08:47.542
01:19:19.000                : en:01:19:19.000
01:22:50.583                : en:01:22:50.583
01:31:27.875                : en:01:31:27.875
01:35:52.792                : en:01:35:52.792
01:37:27.542                : en:01:37:27.542
01:45:19.042                : en:01:45:19.042
01:50:17.917                : en:01:50:17.917
01:53:57.125                : en:01:53:57.125
01:59:17.208                : en:01:59:17.208
02:06:43.583                : en:02:06:43.583
02:11:07.375                : en:02:11:07.375
02:20:26.125                : en:02:20:26.125
02:24:03.250                : en:02:24:03.250
02:29:04.375                : en:02:29:04.375
02:40:22.875                : en:02:40:22.875
02:50:27.708                : en:02:50:27.708
02:55:39.833                : en:02:55:39.833

SINGLE DIRECT FAST LINKS
Code:
http://www.heroupload.us/c72d2e8da25b4d41/CHANDNI.1989.720p.BluRay.nHD.x264-NhaNc3.mkv
Code:
http://filefloater.com/29Lo/CHANDNI.1989.720p.BluRay.nHD.x264-NhaNc3.mkv


Buy Premium From My Links & Support Me