Code:
General
Unique ID                   : 225113039214689529344137042678480197269 (0xA95B31BE45709FFB9C1D708301E15695)
Complete name               : E:\Download C 3\Bol.Bachchan.2012.720p.BluRay.nHD.x264-NhaNc3.mkv
Format                      : Matroska
Format version              : Version 2
File size                   : 2.93 GiB
Duration                    : 2 h 29 min
Overall bit rate            : 2 803 kb/s
Encoded date                : UTC 2012-10-17 23:27:03
Writing application         : mkvmerge v4.8.0 ('I Got The...') built on May 24 2011 03:12:58
Writing library             : libebml v1.2.0 + libmatroska v1.1.0

Video
ID                          : 1
Format                      : AVC
Format/Info                 : Advanced Video Codec
Format profile              : High@L4.1
Format settings, CABAC      : Yes
Format settings, RefFrames  : 5 frames
Codec ID                    : V_MPEG4/ISO/AVC
Duration                    : 2 h 29 min
Bit rate                    : 2 418 kb/s
Width                       : 1 280 pixels
Height                      : 544 pixels
Display aspect ratio        : 2.35:1
Frame rate mode             : Constant
Frame rate                  : 24.000 FPS
Color space                 : YUV
Chroma subsampling          : 4:2:0
Bit depth                   : 8 bits
Scan type                   : Progressive
Bits/(Pixel*Frame)          : 0.145
Stream size                 : 2.47 GiB (84%)
Writing library             : x264 core 125 r2208 d9d2288
Encoding settings           : cabac=1 / ref=5 / deblock=1:0:0 / analyse=0x3:0x113 / me=umh / subme=9 / psy=1 / psy_rd=1.00:0.00 / mixed_ref=1 / me_range=16 / chroma_me=1 / trellis=1 / 8x8dct=1 / cqm=0 / deadzone=21,11 / fast_pskip=1 / chroma_qp_offset=-2 / threads=12 / lookahead_threads=2 / sliced_threads=0 / nr=0 / decimate=1 / interlaced=0 / bluray_compat=0 / constrained_intra=0 / bframes=5 / b_pyramid=2 / b_adapt=1 / b_bias=0 / direct=1 / weightb=1 / open_gop=0 / weightp=2 / keyint=250 / keyint_min=24 / scenecut=40 / intra_refresh=0 / rc_lookahead=40 / rc=2pass / mbtree=1 / bitrate=2418 / ratetol=1.0 / qcomp=0.60 / qpmin=0 / qpmax=69 / qpstep=4 / cplxblur=20.0 / qblur=0.5 / vbv_maxrate=20000 / vbv_bufsize=15000 / nal_hrd=none / ip_ratio=1.40 / aq=1:1.00
Language                    : English
Default                     : Yes
Forced                      : No
Color range                 : Limited
Color primaries             : BT.709
Transfer characteristics    : BT.709
Matrix coefficients         : BT.709

Audio
ID                          : 2
Format                      : AC-3
Format/Info                 : Audio Coding 3
Format settings, Endianness : Big
Codec ID                    : A_AC3
Duration                    : 2 h 29 min
Bit rate mode               : Constant
Bit rate                    : 384 kb/s
Channel(s)                  : 6 channels
Channel positions           : Front: L C R, Side: L R, LFE
Sampling rate               : 48.0 kHz
Frame rate                  : 31.250 FPS (1536 SPF)
Bit depth                   : 16 bits
Compression mode            : Lossy
Stream size                 : 411 MiB (14%)
Language                    : English
Service kind                : Complete Main
Default                     : Yes
Forced                      : Yes

Text
ID                          : 3
Format                      : UTF-8
Codec ID                    : S_TEXT/UTF8
Codec ID/Info               : UTF-8 Plain Text
Language                    : English
Default                     : No
Forced                      : No

Menu
00:00:00.000                : :1. Titles/Bol Bachchan...
00:07:48.625                : :2. To Ranakpur
00:16:41.250                : :3. Controversy Temple
00:26:53.083                : :4. Artificial Family Story
00:36:21.875                : :5. Bonfire Action
00:45:50.125                : :6. Counterfeit Mother
00:53:45.750                : :7. Perplexity Play
01:03:46.917                : :8. Chalao Na Naino Se...
01:07:01.625                : :9. True Face On Mosque
01:14:45.792                : :10. Entry of Abbas
01:23:36.833                : :11. Nach Le Nach Le...
01:28:31.500                : :12. Doubt of Hoaxing
01:35:45.708                : :13. Fact Wrecked
01:44:37.833                : :14. Sister's New Trend
01:53:21.333                : :15. Sister Gone Astray
02:02:40.458                : :16. Prithvi Enlighten's His Love
02:10:37.917                : :17. Stage Show
02:16:54.583                : :18. Climax

SINGLE DIRECT FAST LINKS
Code:
http://www.heroupload.us/2a2058ca891907e1/Bol.Bachchan.2012.720p.BluRay.nHD.x264-NhaNc3.mkv
Code:
http://filefloater.com/29Lt/Bol.Bachchan.2012.720p.BluRay.nHD.x264-NhaNc3.mkv
Buy Premium From My Links & Support Me