Code:
General
Unique ID                   : 189583693597819034469180011740357240176 (0x8EA07DC258F575C6957ECB1AF5D8A570)
Complete name               : E:\Download C 3\1920.Evil.Returns.2012.720p.BluRay.nHD.x264-NhaNc3.mkv
Format                      : Matroska
Format version              : Version 2
File size                   : 2.44 GiB
Duration                    : 2 h 4 min
Overall bit rate            : 2 814 kb/s
Encoded date                : UTC 2013-01-28 03:31:14
Writing application         : mkvmerge v4.8.0 ('I Got The...') built on May 24 2011 03:12:58
Writing library             : libebml v1.2.0 + libmatroska v1.1.0

Video
ID                          : 1
Format                      : AVC
Format/Info                 : Advanced Video Codec
Format profile              : High@L4.1
Format settings, CABAC      : Yes
Format settings, RefFrames  : 8 frames
Codec ID                    : V_MPEG4/ISO/AVC
Duration                    : 2 h 4 min
Bit rate                    : 2 429 kb/s
Width                       : 1 280 pixels
Height                      : 544 pixels
Display aspect ratio        : 2.35:1
Frame rate mode             : Constant
Frame rate                  : 24.000 FPS
Color space                 : YUV
Chroma subsampling          : 4:2:0
Bit depth                   : 8 bits
Scan type                   : Progressive
Bits/(Pixel*Frame)          : 0.145
Stream size                 : 2.06 GiB (84%)
Writing library             : x264 core 129 r2230 1cffe9f
Encoding settings           : cabac=1 / ref=8 / deblock=1:0:0 / analyse=0x3:0x113 / me=umh / subme=9 / psy=1 / psy_rd=1.00:0.00 / mixed_ref=1 / me_range=16 / chroma_me=1 / trellis=1 / 8x8dct=1 / cqm=0 / deadzone=21,11 / fast_pskip=1 / chroma_qp_offset=-2 / threads=12 / lookahead_threads=2 / sliced_threads=0 / nr=0 / decimate=1 / interlaced=0 / bluray_compat=0 / constrained_intra=0 / bframes=5 / b_pyramid=2 / b_adapt=1 / b_bias=0 / direct=1 / weightb=1 / open_gop=0 / weightp=2 / keyint=250 / keyint_min=24 / scenecut=40 / intra_refresh=0 / rc_lookahead=40 / rc=2pass / mbtree=1 / bitrate=2429 / ratetol=1.0 / qcomp=0.60 / qpmin=0 / qpmax=69 / qpstep=4 / cplxblur=20.0 / qblur=0.5 / vbv_maxrate=20000 / vbv_bufsize=15000 / nal_hrd=none / ip_ratio=1.40 / aq=1:1.00
Language                    : English
Default                     : Yes
Forced                      : No
Color range                 : Limited
Color primaries             : BT.709
Transfer characteristics    : BT.709
Matrix coefficients         : BT.709

Audio
ID                          : 2
Format                      : AC-3
Format/Info                 : Audio Coding 3
Format settings, Endianness : Big
Codec ID                    : A_AC3
Duration                    : 2 h 4 min
Bit rate mode               : Constant
Bit rate                    : 384 kb/s
Channel(s)                  : 6 channels
Channel positions           : Front: L C R, Side: L R, LFE
Sampling rate               : 48.0 kHz
Frame rate                  : 31.250 FPS (1536 SPF)
Bit depth                   : 16 bits
Compression mode            : Lossy
Stream size                 : 341 MiB (14%)
Language                    : English
Service kind                : Complete Main
Default                     : Yes
Forced                      : Yes

Menu
00:00:00.000                : en:00:00:00.000
00:08:57.583                : en:00:08:57.583
00:11:50.917                : en:00:11:50.917
00:14:54.875                : en:00:14:54.875
00:19:53.333                : en:00:19:53.333
00:23:50.167                : en:00:23:50.167
00:32:33.083                : en:00:32:33.083
00:39:59.417                : en:00:39:59.417
00:47:21.583                : en:00:47:21.583
00:49:53.917                : en:00:49:53.917
00:53:20.167                : en:00:53:20.167
01:00:49.375                : en:01:00:49.375
01:09:54.875                : en:01:09:54.875
01:19:41.083                : en:01:19:41.083
01:24:15.250                : en:01:24:15.250
01:43:26.083                : en:01:43:26.083
01:52:14.542                : en:01:52:14.542
01:59:50.542                : en:01:59:50.542

SINGLE DIRECT FAST LINKS
Code:
http://www.heroupload.us/a9ba04e1079d64ce/1920.Evil.Returns.2012.720p.BluRay.nHD.x264-NhaNc3.mkv
Code:
http://filefloater.com/29Ly/1920.Evil.Returns.2012.720p.BluRay.nHD.x264-NhaNc3.mkv



Buy Premium From My Links & Support Me