Code:
General
Unique ID                   : 242583621699970624536141759899577282414 (0xB67FE7F67F19A34A8F68312A8B12EF6E)
Complete name               : E:\Download C 3\Jannat2.2012.720p.BluRay.nHD.x264-NhaNc3.mkv
Format                      : Matroska
Format version              : Version 2
File size                   : 2.64 GiB
Duration                    : 2 h 14 min
Overall bit rate            : 2 810 kb/s
Encoded date                : UTC 2012-08-08 05:52:51
Writing application         : mkvmerge v4.8.0 ('I Got The...') built on May 24 2011 03:12:58
Writing library             : libebml v1.2.0 + libmatroska v1.1.0

Video
ID                          : 1
Format                      : AVC
Format/Info                 : Advanced Video Codec
Format profile              : High@L4.1
Format settings, CABAC      : Yes
Format settings, RefFrames  : 5 frames
Codec ID                    : V_MPEG4/ISO/AVC
Duration                    : 2 h 14 min
Bit rate                    : 2 424 kb/s
Width                       : 1 280 pixels
Height                      : 544 pixels
Display aspect ratio        : 2.35:1
Frame rate mode             : Constant
Frame rate                  : 24.000 FPS
Color space                 : YUV
Chroma subsampling          : 4:2:0
Bit depth                   : 8 bits
Scan type                   : Progressive
Bits/(Pixel*Frame)          : 0.145
Stream size                 : 2.22 GiB (84%)
Writing library             : x264 core 125 r2200 999b753
Encoding settings           : cabac=1 / ref=5 / deblock=1:0:0 / analyse=0x3:0x113 / me=umh / subme=9 / psy=1 / psy_rd=1.00:0.00 / mixed_ref=1 / me_range=16 / chroma_me=1 / trellis=1 / 8x8dct=1 / cqm=0 / deadzone=21,11 / fast_pskip=1 / chroma_qp_offset=-2 / threads=12 / lookahead_threads=2 / sliced_threads=0 / nr=0 / decimate=1 / interlaced=0 / bluray_compat=0 / constrained_intra=0 / bframes=5 / b_pyramid=2 / b_adapt=1 / b_bias=0 / direct=1 / weightb=1 / open_gop=0 / weightp=2 / keyint=250 / keyint_min=24 / scenecut=40 / intra_refresh=0 / rc_lookahead=40 / rc=2pass / mbtree=1 / bitrate=2424 / ratetol=1.0 / qcomp=0.60 / qpmin=0 / qpmax=69 / qpstep=4 / cplxblur=20.0 / qblur=0.5 / vbv_maxrate=20000 / vbv_bufsize=15000 / nal_hrd=none / ip_ratio=1.40 / aq=1:1.00
Language                    : English
Default                     : Yes
Forced                      : No
Color range                 : Limited
Color primaries             : BT.709
Transfer characteristics    : BT.709
Matrix coefficients         : BT.709

Audio
ID                          : 2
Format                      : AC-3
Format/Info                 : Audio Coding 3
Format settings, Endianness : Big
Codec ID                    : A_AC3
Duration                    : 2 h 14 min
Bit rate mode               : Constant
Bit rate                    : 384 kb/s
Channel(s)                  : 6 channels
Channel positions           : Front: L C R, Side: L R, LFE
Sampling rate               : 48.0 kHz
Frame rate                  : 31.250 FPS (1536 SPF)
Bit depth                   : 16 bits
Compression mode            : Lossy
Stream size                 : 369 MiB (14%)
Language                    : English
Service kind                : Complete Main
Default                     : Yes
Forced                      : Yes

Text
ID                          : 3
Format                      : UTF-8
Codec ID                    : S_TEXT/UTF8
Codec ID/Info               : UTF-8 Plain Text
Language                    : English
Default                     : Yes
Forced                      : No

Menu
00:00:00.000                : en:00:00:00.000
00:06:35.000                : en:00:06:35.000
00:13:03.042                : en:00:13:03.042
00:17:42.750                : en:00:17:42.750
00:21:25.333                : en:00:21:25.333
00:33:35.667                : en:00:33:35.667
00:40:44.000                : en:00:40:44.000
00:47:57.917                : en:00:47:57.917
00:52:43.208                : en:00:52:43.208
00:55:28.333                : en:00:55:28.333
00:58:05.750                : en:00:58:05.750
01:02:13.333                : en:01:02:13.333
01:09:15.542                : en:01:09:15.542
01:14:57.708                : en:01:14:57.708
01:23:30.333                : en:01:23:30.333
01:25:12.583                : en:01:25:12.583
01:36:45.583                : en:01:36:45.583
01:39:07.958                : en:01:39:07.958
01:41:02.833                : en:01:41:02.833
01:47:55.083                : en:01:47:55.083
01:52:05.083                : en:01:52:05.083
01:57:45.542                : en:01:57:45.542
02:11:27.125                : en:02:11:27.125

SINGLE DIRECT FAST LINKS
Code:
http://www.heroupload.us/4046f63fd242fcd9/Jannat2.2012.720p.BluRay.nHD.x264-NhaNc3.mkv
Code:
http://filefloater.com/29Li/Jannat2.2012.720p.BluRay.nHD.x264-NhaNc3.mkv


Buy Premium From My Links & Support Me