Code:
General
Unique ID                   : 178208029519384198213661459826707998731 (0x86119E37BFC04257A7F7496EC213280B)
Complete name               : E:\Download C 3\JAI.HO.2014.720p.BluRay.nHD.x264-NhaNc3.mkv
Format                      : Matroska
Format version              : Version 2
File size                   : 2.82 GiB
Duration                    : 2 h 20 min
Overall bit rate            : 2 860 kb/s
Encoded date                : UTC 2014-04-02 20:31:16
Writing application         : mkvmerge v4.9.1 ('Ich will') built on Jul 11 2011 23:53:15
Writing library             : libebml v1.2.1 + libmatroska v1.1.1
IsTruncated                 : Yes

Video
ID                          : 1
Format                      : AVC
Format/Info                 : Advanced Video Codec
Format profile              : High@L4.1
Format settings, CABAC      : Yes
Format settings, RefFrames  : 8 frames
Codec ID                    : V_MPEG4/ISO/AVC
Duration                    : 2 h 20 min
Bit rate                    : 2 492 kb/s
Width                       : 1 280 pixels
Height                      : 544 pixels
Display aspect ratio        : 2.35:1
Frame rate mode             : Constant
Frame rate                  : 24.000 FPS
Color space                 : YUV
Chroma subsampling          : 4:2:0
Bit depth                   : 8 bits
Scan type                   : Progressive
Bits/(Pixel*Frame)          : 0.149
Stream size                 : 2.38 GiB (85%)
Writing library             : x264 core 130 r2273 b3065e6
Encoding settings           : cabac=1 / ref=8 / deblock=1:0:0 / analyse=0x3:0x113 / me=umh / subme=9 / psy=1 / psy_rd=1.00:0.00 / mixed_ref=1 / me_range=16 / chroma_me=1 / trellis=1 / 8x8dct=1 / cqm=0 / deadzone=21,11 / fast_pskip=1 / chroma_qp_offset=-2 / threads=8 / lookahead_threads=1 / sliced_threads=0 / nr=0 / decimate=1 / interlaced=0 / bluray_compat=0 / constrained_intra=0 / bframes=5 / b_pyramid=2 / b_adapt=1 / b_bias=0 / direct=1 / weightb=1 / open_gop=0 / weightp=2 / keyint=250 / keyint_min=23 / scenecut=40 / intra_refresh=0 / rc_lookahead=40 / rc=2pass / mbtree=1 / bitrate=2492 / ratetol=1.0 / qcomp=0.60 / qpmin=0 / qpmax=69 / qpstep=4 / cplxblur=20.0 / qblur=0.5 / vbv_maxrate=20000 / vbv_bufsize=15000 / nal_hrd=none / ip_ratio=1.40 / aq=1:1.00
Language                    : English
Default                     : Yes
Forced                      : No
Color range                 : Limited
Color primaries             : BT.709
Transfer characteristics    : BT.709
Matrix coefficients         : BT.709

Audio
ID                          : 2
Format                      : AC-3
Format/Info                 : Audio Coding 3
Format settings, Endianness : Big
Codec ID                    : A_AC3
Duration                    : 2 h 20 min
Bit rate mode               : Constant
Bit rate                    : 384 kb/s
Channel(s)                  : 6 channels
Channel positions           : Front: L C R, Side: L R, LFE
Sampling rate               : 48.0 kHz
Frame rate                  : 31.250 FPS (1536 SPF)
Bit depth                   : 16 bits
Compression mode            : Lossy
Stream size                 : 387 MiB (13%)
Language                    : English
Service kind                : Complete Main
Default                     : Yes
Forced                      : Yes

Text
ID                          : 3
Format                      : PGS
Codec ID                    : S_HDMV/PGS
Codec ID/Info               : Picture based subtitle format used on BDs/HD-DVDs
Title                       : Poker DrC
Language                    : Arabic
Default                     : No
Forced                      : No

Menu
00:00:00.000                : en:00:00:00.000
00:04:55.167                : en:00:04:55.167
00:06:26.958                : en:00:06:26.958
00:10:22.792                : en:00:10:22.792
00:16:06.583                : en:00:16:06.583
00:17:43.292                : en:00:17:43.292
00:20:20.375                : en:00:20:20.375
00:28:38.875                : en:00:28:38.875
00:32:31.958                : en:00:32:31.958
00:37:49.875                : en:00:37:49.875
00:41:40.542                : en:00:41:40.542
00:53:58.125                : en:00:53:58.125
00:56:00.083                : en:00:56:00.083
01:06:52.292                : en:01:06:52.292
01:07:42.292                : en:01:07:42.292
01:11:23.667                : en:01:11:23.667
01:15:49.167                : en:01:15:49.167
01:22:58.667                : en:01:22:58.667
01:26:33.292                : en:01:26:33.292
01:36:26.417                : en:01:36:26.417
01:39:40.000                : en:01:39:40.000
01:43:53.750                : en:01:43:53.750
01:54:27.083                : en:01:54:27.083
01:58:04.417                : en:01:58:04.417
02:17:06.583                : en:02:17:06.583

SINGLE DIRECT FAST LINKS
Code:
http://www.heroupload.us/2b4548f042d9b7fb/JAI.HO.2014.720p.BluRay.nHD.x264-NhaNc3.mkv
Code:
http://filefloater.com/29Le/JAI.HO.2014.720p.BluRay.nHD.x264-NhaNc3.mkv



Buy Premium From My Links & Support Me