Code:
General
Unique ID                   : 209546194807100439459146446976132413394 (0x9DA5210EBD05688999927AE8577977D2)
Complete name               : E:\Download C 3\Hum.Tum.2004.720p.BluRay.nHD.x264-NhaNc3.mkv
Format                      : Matroska
Format version              : Version 2
File size                   : 2.83 GiB
Duration                    : 2 h 22 min
Overall bit rate            : 2 841 kb/s
Encoded date                : UTC 2011-09-09 22:13:12
Writing application         : mkvmerge v4.9.1 ('Ich will') built on Jul 11 2011 23:53:15
Writing library             : libebml v1.2.1 + libmatroska v1.1.1

Video
ID                          : 1
Format                      : AVC
Format/Info                 : Advanced Video Codec
Format profile              : High@L4.1
Format settings, CABAC      : Yes
Format settings, RefFrames  : 5 frames
Codec ID                    : V_MPEG4/ISO/AVC
Duration                    : 2 h 22 min
Bit rate                    : 2 455 kb/s
Width                       : 1 280 pixels
Height                      : 544 pixels
Display aspect ratio        : 2.35:1
Frame rate mode             : Constant
Frame rate                  : 24.000 FPS
Color space                 : YUV
Chroma subsampling          : 4:2:0
Bit depth                   : 8 bits
Scan type                   : Progressive
Bits/(Pixel*Frame)          : 0.147
Stream size                 : 2.39 GiB (84%)
Writing library             : x264 core 116 r2044 392e762
Encoding settings           : cabac=1 / ref=5 / deblock=1:0:0 / analyse=0x3:0x113 / me=umh / subme=9 / psy=1 / psy_rd=1.00:0.00 / mixed_ref=1 / me_range=16 / chroma_me=1 / trellis=1 / 8x8dct=1 / cqm=0 / deadzone=21,11 / fast_pskip=1 / chroma_qp_offset=-2 / threads=12 / sliced_threads=0 / nr=0 / decimate=1 / interlaced=0 / bluray_compat=0 / constrained_intra=0 / bframes=5 / b_pyramid=2 / b_adapt=1 / b_bias=0 / direct=1 / weightb=1 / open_gop=0 / weightp=2 / keyint=250 / keyint_min=24 / scenecut=40 / intra_refresh=0 / rc_lookahead=40 / rc=2pass / mbtree=1 / bitrate=2455 / ratetol=1.0 / qcomp=0.60 / qpmin=0 / qpmax=69 / qpstep=4 / cplxblur=20.0 / qblur=0.5 / vbv_maxrate=20000 / vbv_bufsize=15000 / nal_hrd=none / ip_ratio=1.40 / aq=1:1.00
Language                    : English
Default                     : Yes
Forced                      : No
Color range                 : Limited
Color primaries             : BT.709
Transfer characteristics    : BT.709
Matrix coefficients         : BT.709

Audio
ID                          : 2
Format                      : AC-3
Format/Info                 : Audio Coding 3
Format settings, Endianness : Big
Codec ID                    : A_AC3
Duration                    : 2 h 22 min
Bit rate mode               : Constant
Bit rate                    : 384 kb/s
Channel(s)                  : 6 channels
Channel positions           : Front: L C R, Side: L R, LFE
Sampling rate               : 48.0 kHz
Frame rate                  : 31.250 FPS (1536 SPF)
Bit depth                   : 16 bits
Compression mode            : Lossy
Stream size                 : 392 MiB (14%)
Language                    : English
Service kind                : Complete Main
Default                     : Yes
Forced                      : Yes

Text
ID                          : 3
Format                      : UTF-8
Codec ID                    : S_TEXT/UTF8
Codec ID/Info               : UTF-8 Plain Text
Default                     : Yes
Forced                      : No

Menu
00:00:00.000                : en:Chapter01
00:02:51.000                : en:Chapter02
00:04:22.250                : en:Chapter03
00:13:01.750                : en:Chapter04
00:19:17.791                : en:Chapter05
00:25:17.166                : en:Chapter06
00:27:12.000                : en:Chapter07
00:28:17.000                : en:Chapter08
00:31:30.791                : en:Chapter09
00:32:18.833                : en:Chapter10
00:37:34.708                : en:Chapter11
00:39:28.375                : en:Chapter12
00:44:00.000                : en:Chapter13
00:48:45.333                : en:Chapter14
00:51:12.958                : en:Chapter15
00:54:22.666                : en:Chapter16
00:55:40.416                : en:Chapter17
00:57:54.333                : en:Chapter18
00:59:40.166                : en:Chapter19
01:02:07.833                : en:Chapter20
01:08:06.500                : en:Chapter21
01:12:19.166                : en:Chapter22
01:16:48.416                : en:Chapter23
01:24:55.000                : en:Chapter24
01:27:45.500                : en:Chapter25
01:28:29.958                : en:Chapter26
01:33:05.833                : en:Chapter27
01:38:10.333                : en:Chapter28
01:53:20.791                : en:Chapter29
01:59:05.000                : en:Chapter30
02:06:03.375                : en:Chapter31
02:10:20.708                : en:Chapter32
02:13:59.458                : en:Chapter33
02:19:24.291                : en:Chapter34
02:22:43.875                : en:Chapter35


SINGLE DIRECT FAST LINKS
Code:
http://www.heroupload.us/67c31773def6cb1e/Hum.Tum.2004.720p.BluRay.nHD.x264-NhaNc3.mkv
Code:
http://filefloater.com/1JK7/Hum.Tum.2004.720p.BluRay.nHD.x264-NhaNc3.mkv


Buy Premium From My Links & Support Me