Code:
General
Unique ID                   : 207475669171006195386329479563067905631 (0x9C165C4318E23969B99F216DB411D65F)
Complete name               : E:\Download C 3\Housefull-2.2012..720p.BluRay.nHD.x264-NhaNc3.mkv
Format                      : Matroska
Format version              : Version 2
File size                   : 3.13 GiB
Duration                    : 2 h 39 min
Overall bit rate            : 2 803 kb/s
Encoded date                : UTC 2012-07-20 11:44:43
Writing application         : mkvmerge v4.8.0 ('I Got The...') built on May 24 2011 03:12:58
Writing library             : libebml v1.2.0 + libmatroska v1.1.0

Video
ID                          : 1
Format                      : AVC
Format/Info                 : Advanced Video Codec
Format profile              : High@L4.1
Format settings, CABAC      : Yes
Format settings, RefFrames  : 5 frames
Codec ID                    : V_MPEG4/ISO/AVC
Duration                    : 2 h 39 min
Bit rate                    : 2 417 kb/s
Width                       : 1 280 pixels
Height                      : 544 pixels
Display aspect ratio        : 2.35:1
Frame rate mode             : Constant
Frame rate                  : 24.000 FPS
Color space                 : YUV
Chroma subsampling          : 4:2:0
Bit depth                   : 8 bits
Scan type                   : Progressive
Bits/(Pixel*Frame)          : 0.145
Stream size                 : 2.64 GiB (84%)
Writing library             : x264 core 125 r2200 999b753
Encoding settings           : cabac=1 / ref=5 / deblock=1:0:0 / analyse=0x3:0x113 / me=umh / subme=9 / psy=1 / psy_rd=1.00:0.00 / mixed_ref=1 / me_range=16 / chroma_me=1 / trellis=1 / 8x8dct=1 / cqm=0 / deadzone=21,11 / fast_pskip=1 / chroma_qp_offset=-2 / threads=12 / lookahead_threads=2 / sliced_threads=0 / nr=0 / decimate=1 / interlaced=0 / bluray_compat=0 / constrained_intra=0 / bframes=5 / b_pyramid=2 / b_adapt=1 / b_bias=0 / direct=1 / weightb=1 / open_gop=0 / weightp=2 / keyint=250 / keyint_min=24 / scenecut=40 / intra_refresh=0 / rc_lookahead=40 / rc=2pass / mbtree=1 / bitrate=2417 / ratetol=1.0 / qcomp=0.60 / qpmin=0 / qpmax=69 / qpstep=4 / cplxblur=20.0 / qblur=0.5 / vbv_maxrate=20000 / vbv_bufsize=15000 / nal_hrd=none / ip_ratio=1.40 / aq=1:1.00
Language                    : English
Default                     : Yes
Forced                      : No
Color range                 : Limited
Color primaries             : BT.709
Transfer characteristics    : BT.709
Matrix coefficients         : BT.709

Audio
ID                          : 2
Format                      : AC-3
Format/Info                 : Audio Coding 3
Format settings, Endianness : Big
Codec ID                    : A_AC3
Duration                    : 2 h 39 min
Bit rate mode               : Constant
Bit rate                    : 384 kb/s
Channel(s)                  : 6 channels
Channel positions           : Front: L C R, Side: L R, LFE
Sampling rate               : 48.0 kHz
Frame rate                  : 31.250 FPS (1536 SPF)
Bit depth                   : 16 bits
Compression mode            : Lossy
Stream size                 : 439 MiB (14%)
Language                    : English
Service kind                : Complete Main
Default                     : Yes
Forced                      : Yes

Text
ID                          : 3
Format                      : UTF-8
Codec ID                    : S_TEXT/UTF8
Codec ID/Info               : UTF-8 Plain Text
Language                    : English
Default                     : Yes
Forced                      : No

Menu
00:00:00.000                : en:00:00:00.000
00:06:52.666                : en:00:06:52.666
00:10:08.666                : en:00:10:08.666
00:19:10.291                : en:00:19:10.291
00:28:58.666                : en:00:28:58.666
00:33:58.333                : en:00:33:58.333
00:37:37.000                : en:00:37:37.000
00:45:36.875                : en:00:45:36.875
00:58:35.958                : en:00:58:35.958
01:08:12.541                : en:01:08:12.541
01:13:35.708                : en:01:13:35.708
01:24:04.541                : en:01:24:04.541
01:32:37.041                : en:01:32:37.041
01:45:27.500                : en:01:45:27.500
01:49:34.000                : en:01:49:34.000
01:57:25.166                : en:01:57:25.166
02:01:25.666                : en:02:01:25.666
02:06:22.500                : en:02:06:22.500
02:20:38.833                : en:02:20:38.833
02:36:04.333                : en:02:36:04.333
02:39:40.000                : en:02:39:40.000


SINGLE DIRECT FAST LINKS
Code:
http://www.heroupload.us/8c1944e904b3926e/Housefull-2.2012..720p.BluRay.nHD.x264-NhaNc3.mkv
Code:
http://filefloater.com/1JK4/Housefull-2.2012..720p.BluRay.nHD.x264-NhaNc3.mkv

Buy Premium From My Links & Support Me