Code:
General
Unique ID                   : 214443103788211822305068654785801640139 (0xA1543D4F90798B6D895A6CD0CEBA58CB)
Complete name               : E:\Download C 3\Holiday.2014.720p.BluRay.nHD.x264-NhaNc3.mkv
Format                      : Matroska
Format version              : Version 2
File size                   : 3.26 GiB
Duration                    : 2 h 40 min
Overall bit rate            : 2 905 kb/s
Encoded date                : UTC 2014-08-11 15:57:50
Writing application         : mkvmerge v4.9.1 ('Ich will') built on Jul 11 2011 23:53:15
Writing library             : libebml v1.2.1 + libmatroska v1.1.1

Video
ID                          : 1
Format                      : AVC
Format/Info                 : Advanced Video Codec
Format profile              : High@L4.1
Format settings, CABAC      : Yes
Format settings, RefFrames  : 8 frames
Codec ID                    : V_MPEG4/ISO/AVC
Duration                    : 2 h 40 min
Bit rate                    : 2 485 kb/s
Width                       : 1 280 pixels
Height                      : 544 pixels
Display aspect ratio        : 2.35:1
Frame rate mode             : Constant
Frame rate                  : 23.976 FPS
Color space                 : YUV
Chroma subsampling          : 4:2:0
Bit depth                   : 8 bits
Scan type                   : Progressive
Bits/(Pixel*Frame)          : 0.149
Stream size                 : 2.77 GiB (85%)
Writing library             : x264 core 130 r2273 b3065e6
Encoding settings           : cabac=1 / ref=8 / deblock=1:0:0 / analyse=0x3:0x113 / me=umh / subme=9 / psy=1 / psy_rd=1.00:0.00 / mixed_ref=1 / me_range=16 / chroma_me=1 / trellis=1 / 8x8dct=1 / cqm=0 / deadzone=21,11 / fast_pskip=1 / chroma_qp_offset=-2 / threads=8 / lookahead_threads=1 / sliced_threads=0 / nr=0 / decimate=1 / interlaced=0 / bluray_compat=0 / constrained_intra=0 / bframes=5 / b_pyramid=2 / b_adapt=1 / b_bias=0 / direct=1 / weightb=1 / open_gop=0 / weightp=2 / keyint=250 / keyint_min=23 / scenecut=40 / intra_refresh=0 / rc_lookahead=40 / rc=2pass / mbtree=1 / bitrate=2485 / ratetol=1.0 / qcomp=0.60 / qpmin=0 / qpmax=69 / qpstep=4 / cplxblur=20.0 / qblur=0.5 / vbv_maxrate=20000 / vbv_bufsize=15000 / nal_hrd=none / ip_ratio=1.40 / aq=1:1.00
Language                    : English
Default                     : Yes
Forced                      : No
Color range                 : Limited
Color primaries             : BT.709
Transfer characteristics    : BT.709
Matrix coefficients         : BT.709

Audio
ID                          : 2
Format                      : AC-3
Format/Info                 : Audio Coding 3
Format settings, Endianness : Big
Codec ID                    : A_AC3
Duration                    : 2 h 40 min
Bit rate mode               : Constant
Bit rate                    : 384 kb/s
Channel(s)                  : 6 channels
Channel positions           : Front: L C R, Side: L R, LFE
Sampling rate               : 48.0 kHz
Frame rate                  : 31.250 FPS (1536 SPF)
Bit depth                   : 16 bits
Compression mode            : Lossy
Stream size                 : 442 MiB (13%)
Language                    : English
Service kind                : Complete Main
Default                     : Yes
Forced                      : Yes

Text
ID                          : 3
Format                      : PGS
Codec ID                    : S_HDMV/PGS
Codec ID/Info               : Picture based subtitle format used on BDs/HD-DVDs
Language                    : English
Default                     : Yes
Forced                      : No
Statistics Tags Issue       : mkvmerge v7.0.0 ('Where We Going') 32bit built on Jun  9 2014 15:08:34 2014-08-09 18:45:15 / mkvmerge v4.9.1 ('Ich will') built on Jul 11 2011 23:53:15 2014-08-11 15:57:50
FromStats_BitRate           : 23652
FromStats_Duration          : 02:30:03.244000000
FromStats_FrameCount        : 3297
FromStats_StreamSize        : 26619102

Menu
00:00:00.000                : en:00:00:00.000
00:03:56.403                : en:00:03:56.403
00:09:20.977                : en:00:09:20.977
00:15:35.935                : en:00:15:35.935
00:18:55.801                : en:00:18:55.801
00:26:57.741                : en:00:26:57.741
00:33:56.451                : en:00:33:56.451
00:39:32.370                : en:00:39:32.370
00:44:38.092                : en:00:44:38.092
00:50:53.467                : en:00:50:53.467
01:02:03.929                : en:01:02:03.929
01:12:09.450                : en:01:12:09.450
01:16:31.796                : en:01:16:31.796
01:25:40.761                : en:01:25:40.761
01:35:46.950                : en:01:35:46.950
01:44:29.680                : en:01:44:29.680
01:59:20.153                : en:01:59:20.153
02:07:22.051                : en:02:07:22.051
02:17:03.632                : en:02:17:03.632
02:34:02.859                : en:02:34:02.859


SINGLE DIRECT FAST LINKS
Code:
http://www.heroupload.us/ab1866baa274cf0d/Holiday.2014.720p.BluRay.nHD.x264-NhaNc3.mkv
Code:
http://filefloater.com/2zLN/Holiday.2014.720p.BluRay.nHD.x264-NhaNc3.mkv
Buy Premium From My Links & Support Me