Code:
General
Unique ID                   : 174342655357662380980270795568187488175 (0x83292C8EC9088F7DB6C6A2994EE0B7AF)
Complete name               : E:\Download C 3\Highway.2014.720p.BluRay.nHD.x264-NhaNc3.mkv
Format                      : Matroska
Format version              : Version 2
File size                   : 2.64 GiB
Duration                    : 2 h 13 min
Overall bit rate            : 2 838 kb/s
Encoded date                : UTC 2014-06-03 07:53:09
Writing application         : mkvmerge v4.9.1 ('Ich will') built on Jul 11 2011 23:53:15
Writing library             : libebml v1.2.1 + libmatroska v1.1.1

Video
ID                          : 1
Format                      : AVC
Format/Info                 : Advanced Video Codec
Format profile              : High@L4.1
Format settings, CABAC      : Yes
Format settings, RefFrames  : 8 frames
Codec ID                    : V_MPEG4/ISO/AVC
Duration                    : 2 h 13 min
Bit rate                    : 2 451 kb/s
Width                       : 1 280 pixels
Height                      : 544 pixels
Display aspect ratio        : 2.35:1
Frame rate mode             : Constant
Frame rate                  : 23.976 FPS
Color space                 : YUV
Chroma subsampling          : 4:2:0
Bit depth                   : 8 bits
Scan type                   : Progressive
Bits/(Pixel*Frame)          : 0.147
Stream size                 : 2.23 GiB (84%)
Writing library             : x264 core 130 r2273 b3065e6
Encoding settings           : cabac=1 / ref=8 / deblock=1:0:0 / analyse=0x3:0x113 / me=umh / subme=9 / psy=1 / psy_rd=1.00:0.00 / mixed_ref=1 / me_range=16 / chroma_me=1 / trellis=1 / 8x8dct=1 / cqm=0 / deadzone=21,11 / fast_pskip=1 / chroma_qp_offset=-2 / threads=8 / lookahead_threads=1 / sliced_threads=0 / nr=0 / decimate=1 / interlaced=0 / bluray_compat=0 / constrained_intra=0 / bframes=5 / b_pyramid=2 / b_adapt=1 / b_bias=0 / direct=1 / weightb=1 / open_gop=0 / weightp=2 / keyint=250 / keyint_min=23 / scenecut=40 / intra_refresh=0 / rc_lookahead=40 / rc=2pass / mbtree=1 / bitrate=2451 / ratetol=1.0 / qcomp=0.60 / qpmin=0 / qpmax=69 / qpstep=4 / cplxblur=20.0 / qblur=0.5 / vbv_maxrate=20000 / vbv_bufsize=15000 / nal_hrd=none / ip_ratio=1.40 / aq=1:1.00
Language                    : English
Default                     : Yes
Forced                      : No
Color range                 : Limited
Color primaries             : BT.709
Transfer characteristics    : BT.709
Matrix coefficients         : BT.709

Audio
ID                          : 2
Format                      : AC-3
Format/Info                 : Audio Coding 3
Format settings, Endianness : Big
Codec ID                    : A_AC3
Duration                    : 2 h 13 min
Bit rate mode               : Constant
Bit rate                    : 384 kb/s
Channel(s)                  : 6 channels
Channel positions           : Front: L C R, Side: L R, LFE
Sampling rate               : 48.0 kHz
Frame rate                  : 31.250 FPS (1536 SPF)
Bit depth                   : 16 bits
Compression mode            : Lossy
Stream size                 : 366 MiB (14%)
Language                    : English
Service kind                : Complete Main
Default                     : Yes
Forced                      : Yes

Text
ID                          : 3
Format                      : VobSub
Codec ID                    : S_VOBSUB
Codec ID/Info               : Picture based subtitle format used on DVDs
Title                       : [DDR]
Language                    : English
Default                     : No
Forced                      : No

Menu
00:00:00.000                : en:00:00:00.000
00:27:32.985                : en:00:27:32.985
00:33:01.938                : en:00:33:01.938
00:51:02.935                : en:00:51:02.935
01:04:32.952                : en:01:04:32.952
01:15:05.334                : en:01:15:05.334
01:22:22.354                : en:01:22:22.354
01:22:33.949                : en:01:22:33.949
01:30:49.986                : en:01:30:49.986
01:38:45.920                : en:01:38:45.920
01:56:56.134                : en:01:56:56.134
02:05:39.907                : en:02:05:39.907
02:08:28.284                : en:02:08:28.284

SINGLE DIRECT FAST LINKS
Code:
http://www.heroupload.us/f8a5258391379c18/Highway.2014.720p.BluRay.nHD.x264-NhaNc3.mkv
Code:
http://filefloater.com/2zLL/Highway.2014.720p.BluRay.nHD.x264-NhaNc3.mkv
Buy Premium From My Links & Support Me