Code:
General
Unique ID                   : 237950191604419915213089324905017784113 (0xB3038A38BEC65E5A8C3D098FC0423731)
Complete name               : E:\Download C 3\Heroine.2012.720p.BluRay.nHD.x264-NhaNc3.mkv
Format                      : Matroska
Format version              : Version 2
File size                   : 3.02 GiB
Duration                    : 2 h 30 min
Overall bit rate            : 2 873 kb/s
Encoded date                : UTC 2013-01-19 23:30:13
Writing application         : mkvmerge v4.8.0 ('I Got The...') built on May 24 2011 03:12:58
Writing library             : libebml v1.2.0 + libmatroska v1.1.0
IsTruncated                 : Yes

Video
ID                          : 1
Format                      : AVC
Format/Info                 : Advanced Video Codec
Format profile              : High@L4.1
Format settings, CABAC      : Yes
Format settings, RefFrames  : 8 frames
Codec ID                    : V_MPEG4/ISO/AVC
Duration                    : 2 h 30 min
Bit rate                    : 2 499 kb/s
Width                       : 1 280 pixels
Height                      : 544 pixels
Display aspect ratio        : 2.35:1
Frame rate mode             : Constant
Frame rate                  : 24.000 FPS
Color space                 : YUV
Chroma subsampling          : 4:2:0
Bit depth                   : 8 bits
Scan type                   : Progressive
Bits/(Pixel*Frame)          : 0.150
Stream size                 : 2.55 GiB (85%)
Writing library             : x264 core 129 r2230 1cffe9f
Encoding settings           : cabac=1 / ref=8 / deblock=1:0:0 / analyse=0x3:0x113 / me=umh / subme=9 / psy=1 / psy_rd=1.00:0.00 / mixed_ref=1 / me_range=16 / chroma_me=1 / trellis=1 / 8x8dct=1 / cqm=0 / deadzone=21,11 / fast_pskip=1 / chroma_qp_offset=-2 / threads=12 / lookahead_threads=2 / sliced_threads=0 / nr=0 / decimate=1 / interlaced=0 / bluray_compat=0 / constrained_intra=0 / bframes=5 / b_pyramid=2 / b_adapt=1 / b_bias=0 / direct=1 / weightb=1 / open_gop=0 / weightp=2 / keyint=250 / keyint_min=24 / scenecut=40 / intra_refresh=0 / rc_lookahead=40 / rc=2pass / mbtree=1 / bitrate=2499 / ratetol=1.0 / qcomp=0.60 / qpmin=0 / qpmax=69 / qpstep=4 / cplxblur=20.0 / qblur=0.5 / vbv_maxrate=20000 / vbv_bufsize=15000 / nal_hrd=none / ip_ratio=1.40 / aq=1:1.00
Language                    : English
Default                     : Yes
Forced                      : No
Color range                 : Limited
Color primaries             : BT.709
Transfer characteristics    : BT.709
Matrix coefficients         : BT.709

Audio
ID                          : 2
Format                      : AC-3
Format/Info                 : Audio Coding 3
Format settings, Endianness : Big
Codec ID                    : A_AC3
Duration                    : 2 h 30 min
Bit rate mode               : Constant
Bit rate                    : 384 kb/s
Channel(s)                  : 6 channels
Channel positions           : Front: L C R, Side: L R, LFE
Sampling rate               : 48.0 kHz
Frame rate                  : 31.250 FPS (1536 SPF)
Bit depth                   : 16 bits
Compression mode            : Lossy
Stream size                 : 413 MiB (13%)
Language                    : English
Service kind                : Complete Main
Default                     : Yes
Forced                      : Yes

Text
ID                          : 3
Format                      : UTF-8
Codec ID                    : S_TEXT/UTF8
Codec ID/Info               : UTF-8 Plain Text
Language                    : English
Default                     : No
Forced                      : No

Menu
00:00:00.000                : en:00:00:00.000
00:05:25.208                : en:00:05:25.208
00:09:12.625                : en:00:09:12.625
00:12:22.417                : en:00:12:22.417
00:28:37.333                : en:00:28:37.333
00:34:01.333                : en:00:34:01.333
00:39:53.208                : en:00:39:53.208
00:48:51.000                : en:00:48:51.000
00:57:19.000                : en:00:57:19.000
01:02:37.417                : en:01:02:37.417
01:15:58.000                : en:01:15:58.000
01:24:57.000                : en:01:24:57.000
01:44:08.542                : en:01:44:08.542
01:53:06.000                : en:01:53:06.000
01:55:12.208                : en:01:55:12.208
01:58:34.625                : en:01:58:34.625
02:02:42.250                : en:02:02:42.250
02:09:18.083                : en:02:09:18.083
02:19:22.417                : en:02:19:22.417
02:26:16.000                : en:02:26:16.000
SINGLE DIRECT FAST LINKS
Code:
http://www.heroupload.us/03637e1bb3092699/Heroine.2012.720p.BluRay.nHD.x264-NhaNc3.mkv
Code:
http://filefloater.com/2zLJ/Heroine.2012.720p.BluRay.nHD.x264-NhaNc3.mkv

Buy Premium From My Links & Support Me