Code:
General
Unique ID                   : 219401069103625411310378906571026069377 (0xA50F1BDFAC3605B2A50415E29809F781)
Complete name               : E:\Download C 3\Hasee.Toh.Phasee.2014.720p.BluRay.nHD.x264-NhaNc3.mkv
Format                      : Matroska
Format version              : Version 4 / Version 2
File size                   : 2.90 GiB
Duration                    : 2 h 21 min
Overall bit rate            : 2 940 kb/s
Encoded date                : UTC 2014-05-08 13:28:48
Writing application         : mkvmerge v6.9.1 ('Blue Panther') 64bit built on Apr 18 2014 18:23:38
Writing library             : libebml v1.3.0 + libmatroska v1.4.1

Video
ID                          : 1
Format                      : AVC
Format/Info                 : Advanced Video Codec
Format profile              : High@L4.1
Format settings, CABAC      : Yes
Format settings, RefFrames  : 8 frames
Codec ID                    : V_MPEG4/ISO/AVC
Duration                    : 2 h 21 min
Bit rate                    : 2 490 kb/s
Width                       : 1 280 pixels
Height                      : 544 pixels
Display aspect ratio        : 2.35:1
Frame rate mode             : Constant
Frame rate                  : 23.976 FPS
Color space                 : YUV
Chroma subsampling          : 4:2:0
Bit depth                   : 8 bits
Scan type                   : Progressive
Bits/(Pixel*Frame)          : 0.149
Stream size                 : 2.40 GiB (83%)
Writing library             : x264 core 130 r2273 b3065e6
Encoding settings           : cabac=1 / ref=8 / deblock=1:0:0 / analyse=0x3:0x113 / me=umh / subme=9 / psy=1 / psy_rd=1.00:0.00 / mixed_ref=1 / me_range=16 / chroma_me=1 / trellis=1 / 8x8dct=1 / cqm=0 / deadzone=21,11 / fast_pskip=1 / chroma_qp_offset=-2 / threads=8 / lookahead_threads=1 / sliced_threads=0 / nr=0 / decimate=1 / interlaced=0 / bluray_compat=0 / constrained_intra=0 / bframes=5 / b_pyramid=2 / b_adapt=1 / b_bias=0 / direct=1 / weightb=1 / open_gop=0 / weightp=2 / keyint=250 / keyint_min=23 / scenecut=40 / intra_refresh=0 / rc_lookahead=40 / rc=2pass / mbtree=1 / bitrate=2490 / ratetol=1.0 / qcomp=0.60 / qpmin=0 / qpmax=69 / qpstep=4 / cplxblur=20.0 / qblur=0.5 / vbv_maxrate=20000 / vbv_bufsize=15000 / nal_hrd=none / ip_ratio=1.40 / aq=1:1.00
Language                    : English
Default                     : Yes
Forced                      : No
Color range                 : Limited
Color primaries             : BT.709
Transfer characteristics    : BT.709
Matrix coefficients         : BT.709

Audio
ID                          : 2
Format                      : AC-3
Format/Info                 : Audio Coding 3
Format settings, Endianness : Big
Codec ID                    : A_AC3
Duration                    : 2 h 21 min
Bit rate mode               : Constant
Bit rate                    : 448 kb/s
Channel(s)                  : 6 channels
Channel positions           : Front: L C R, Side: L R, LFE
Sampling rate               : 44.1 kHz
Frame rate                  : 28.711 FPS (1536 SPF)
Bit depth                   : 16 bits
Compression mode            : Lossy
Stream size                 : 452 MiB (15%)
Service kind                : Complete Main
Default                     : Yes
Forced                      : No

Text
ID                          : 3
Format                      : UTF-8
Codec ID                    : S_TEXT/UTF8
Codec ID/Info               : UTF-8 Plain Text
Title                       : ESub - MaNuDiL
Language                    : English
Default                     : Yes
Forced                      : No

Menu
00:00:00.000                : en:Chapter 01
00:05:20.987                : en:Chapter 02
00:12:17.987                : en:Chapter 03
00:15:18.959                : en:Chapter 04
00:22:10.996                : en:Chapter 05
00:35:56.988                : en:Chapter 06
00:47:47.948                : en:Chapter 07
00:55:45.967                : en:Chapter 08
01:00:59.947                : en:Chapter 09
01:11:37.960                : en:Chapter 10
01:20:29.950                : en:Chapter 11
01:27:11.893                : en:Chapter 12
01:31:24.937                : en:Chapter 13
01:39:27.044                : en:Chapter 14
01:48:44.893                : en:Chapter 15
02:02:30.926                : en:Chapter 16
02:05:28.896                : en:Chapter 17
02:06:50.894                : en:Chapter 18
02:15:35.877                : en:Chapter 19
02:17:29.866                : en:Chapter 20


SINGLE DIRECT FAST LINKS
Code:
http://www.heroupload.us/d076fc0637944fb8/Hasee.Toh.Phasee.2014.720p.BluRay.nHD.x264-NhaNc3.mkv
Code:
http://filefloater.com/2zLH/Hasee.Toh.Phasee.2014.720p.BluRay.nHD.x264-NhaNc3.mkv
Buy Premium From My Links & Support Me