Code:
General
Unique ID                   : 236730236171575766247677588472902885224 (0xB21895C66452F38FA951082982829F68)
Complete name               : E:\Download C 3\Happy.New.Year.2014.720p.BluRay.nHD.x264-NhaNc3.mkv
Format                      : Matroska
Format version              : Version 2
File size                   : 3.53 GiB
Duration                    : 2 h 59 min
Overall bit rate            : 2 808 kb/s
Encoded date                : UTC 2015-03-06 22:55:02
Writing application         : mkvmerge v4.9.1 ('Ich will') built on Jul 11 2011 23:53:15
Writing library             : libebml v1.2.1 + libmatroska v1.1.1

Video
ID                          : 1
Format                      : AVC
Format/Info                 : Advanced Video Codec
Format profile              : High@L4.1
Format settings, CABAC      : Yes
Format settings, RefFrames  : 8 frames
Codec ID                    : V_MPEG4/ISO/AVC
Duration                    : 2 h 59 min
Bit rate                    : 2 413 kb/s
Width                       : 1 280 pixels
Height                      : 544 pixels
Display aspect ratio        : 2.35:1
Frame rate mode             : Constant
Frame rate                  : 24.000 FPS
Color space                 : YUV
Chroma subsampling          : 4:2:0
Bit depth                   : 8 bits
Scan type                   : Progressive
Bits/(Pixel*Frame)          : 0.144
Stream size                 : 2.98 GiB (84%)
Writing library             : x264 core 130 r2273 b3065e6
Encoding settings           : cabac=1 / ref=8 / deblock=1:0:0 / analyse=0x3:0x113 / me=umh / subme=9 / psy=1 / psy_rd=1.00:0.00 / mixed_ref=1 / me_range=16 / chroma_me=1 / trellis=1 / 8x8dct=1 / cqm=0 / deadzone=21,11 / fast_pskip=1 / chroma_qp_offset=-2 / threads=8 / lookahead_threads=1 / sliced_threads=0 / nr=0 / decimate=1 / interlaced=0 / bluray_compat=0 / constrained_intra=0 / bframes=5 / b_pyramid=2 / b_adapt=1 / b_bias=0 / direct=1 / weightb=1 / open_gop=0 / weightp=2 / keyint=250 / keyint_min=23 / scenecut=40 / intra_refresh=0 / rc_lookahead=40 / rc=2pass / mbtree=1 / bitrate=2413 / ratetol=1.0 / qcomp=0.60 / qpmin=0 / qpmax=69 / qpstep=4 / cplxblur=20.0 / qblur=0.5 / vbv_maxrate=20000 / vbv_bufsize=15000 / nal_hrd=none / ip_ratio=1.40 / aq=1:1.00
Language                    : English
Default                     : Yes
Forced                      : No
Color range                 : Limited
Color primaries             : BT.709
Transfer characteristics    : BT.709
Matrix coefficients         : BT.709

Audio
ID                          : 2
Format                      : AC-3
Format/Info                 : Audio Coding 3
Format settings, Endianness : Big
Codec ID                    : A_AC3
Duration                    : 2 h 59 min
Bit rate mode               : Constant
Bit rate                    : 384 kb/s
Channel(s)                  : 6 channels
Channel positions           : Front: L C R, Side: L R, LFE
Sampling rate               : 48.0 kHz
Frame rate                  : 31.250 FPS (1536 SPF)
Bit depth                   : 16 bits
Compression mode            : Lossy
Stream size                 : 494 MiB (14%)
Language                    : English
Service kind                : Complete Main
Default                     : Yes
Forced                      : Yes

Text
ID                          : 3
Format                      : VobSub
Codec ID                    : S_VOBSUB
Codec ID/Info               : Picture based subtitle format used on DVDs
Language                    : English
Default                     : Yes
Forced                      : No
Statistics Tags Issue       : mkvmerge v7.3.0 ('Nouages') 32bit built on Oct 22 2014 18:44:01 2015-03-04 22:15:04 / mkvmerge v4.9.1 ('Ich will') built on Jul 11 2011 23:53:15 2015-03-06 22:55:02
FromStats_BitRate           : 9653
FromStats_Duration          : 02:56:42.630000000
FromStats_FrameCount        : 2995
FromStats_StreamSize        : 12793950

Menu
00:00:00.000                : en:Prelude WDC
00:04:33.167                : en:Charlie Intro
00:12:10.917                : en:Jag, Tammy, Rohan
00:27:46.292                : en:Nandu Bhide
00:32:04.333                : en:Team Diamonds
00:38:05.292                : en:Shalimar
00:44:21.958                : en:Learning To Dance
00:49:27.125                : en:Flashback
00:55:02.125                : en:LOVELY...
00:58:55.750                : en:Charlie Insults Mohini
01:04:45.625                : en:MANWA LAAGEY...
01:09:17.125                : en:India Auditons
01:14:52.833                : en:DANCE LIKE CHAMIYA...
01:16:24.875                : en:Team India
01:20:44.167                : en:Dubai - Entry Into Atlantis
01:34:27.083                : en:INDIA WAALE...
01:38:36.167                : en:Mock Heist
01:50:36.042                : en:WDC Semi-Finals
02:05:25.750                : en:SATAKLI...
02:09:33.958                : en:Mission Happy New Year Revealed
02:16:09.125                : en:Heist Execution
02:42:45.750                : en:WDC Finale
02:49:22.042                : en:Losers Become Winners
02:55:14.375                : en:SHARAABI...

SINGLE DIRECT FAST LINKS
Code:
http://www.heroupload.us/2202de16f07e5573/Happy.New.Year.2014.720p.BluRay.nHD.x264-NhaNc3.mkv
Code:
http://filefloater.com/2zLF/Happy.New.Year.2014.720p.BluRay.nHD.x264-NhaNc3.mkv

Buy Premium From My Links & Support Me