Code:
General
Unique ID                   : 220911520103935776639121516644155214951 (0xA63202DB912A1569B8B37F887FC74C67)
Complete name               : E:\Download C 3\Guru.2007.720p.BluRay.nHD.x264-NhaNc3.mkv
Format                      : Matroska
Format version              : Version 2
File size                   : 2.81 GiB
Duration                    : 2 h 41 min
Overall bit rate            : 2 485 kb/s
Encoded date                : UTC 2011-02-01 13:42:13
Writing application         : mkvmerge v4.4.0 ('Die Wiederkehr') built on Oct 31 2010 21:52:48
Writing library             : libebml v1.0.0 + libmatroska v1.0.0

Video
ID                          : 1
Format                      : AVC
Format/Info                 : Advanced Video Codec
Format profile              : High@L4.1
Format settings, CABAC      : Yes
Format settings, RefFrames  : 8 frames
Codec ID                    : V_MPEG4/ISO/AVC
Duration                    : 2 h 41 min
Bit rate                    : 2 164 kb/s
Width                       : 1 280 pixels
Height                      : 544 pixels
Display aspect ratio        : 2.35:1
Frame rate mode             : Constant
Frame rate                  : 24.000 FPS
Color space                 : YUV
Chroma subsampling          : 4:2:0
Bit depth                   : 8 bits
Scan type                   : Progressive
Bits/(Pixel*Frame)          : 0.129
Stream size                 : 2.39 GiB (85%)
Writing library             : x264 core 112 r1867 22bfd31
Encoding settings           : cabac=1 / ref=8 / deblock=1:0:0 / analyse=0x3:0x113 / me=umh / subme=9 / psy=1 / psy_rd=1.00:0.00 / mixed_ref=1 / me_range=24 / chroma_me=1 / trellis=1 / 8x8dct=1 / cqm=0 / deadzone=21,11 / fast_pskip=1 / chroma_qp_offset=-2 / threads=12 / sliced_threads=0 / nr=0 / decimate=1 / interlaced=0 / constrained_intra=0 / bframes=5 / b_pyramid=2 / b_adapt=1 / b_bias=0 / direct=1 / weightb=1 / open_gop=0 / weightp=2 / keyint=250 / keyint_min=24 / scenecut=40 / intra_refresh=0 / rc_lookahead=40 / rc=2pass / mbtree=1 / bitrate=2164 / ratetol=1.0 / qcomp=0.60 / qpmin=0 / qpmax=51 / qpstep=4 / cplxblur=20.0 / qblur=0.5 / vbv_maxrate=20000 / vbv_bufsize=15000 / nal_hrd=none / ip_ratio=1.40 / aq=1:1.00
Language                    : English
Default                     : Yes
Forced                      : No
Color range                 : Limited
Color primaries             : BT.709
Transfer characteristics    : BT.709
Matrix coefficients         : BT.709

Audio
ID                          : 2
Format                      : AC-3
Format/Info                 : Audio Coding 3
Format settings, Endianness : Big
Codec ID                    : A_AC3
Duration                    : 2 h 41 min
Bit rate mode               : Constant
Bit rate                    : 320 kb/s
Channel(s)                  : 6 channels
Channel positions           : Front: L C R, Side: L R, LFE
Sampling rate               : 48.0 kHz
Frame rate                  : 31.250 FPS (1536 SPF)
Bit depth                   : 16 bits
Compression mode            : Lossy
Stream size                 : 371 MiB (13%)
Language                    : English
Service kind                : Complete Main
Default                     : Yes
Forced                      : Yes

Text
ID                          : 3
Format                      : UTF-8
Codec ID                    : S_TEXT/UTF8
Codec ID/Info               : UTF-8 Plain Text
Language                    : English
Default                     : No
Forced                      : No

Menu
00:00:00.000                : en:00:00:00.000
00:03:34.125                : en:00:03:34.125
00:06:04.000                : en:00:06:04.000
00:11:23.333                : en:00:11:23.333
00:13:45.417                : en:00:13:45.417
00:25:44.292                : en:00:25:44.292
00:36:54.417                : en:00:36:54.417
00:43:53.208                : en:00:43:53.208
00:53:13.125                : en:00:53:13.125
01:00:23.000                : en:01:00:23.000
01:07:07.417                : en:01:07:07.417
01:12:40.500                : en:01:12:40.500
01:13:59.292                : en:01:13:59.292
01:21:29.000                : en:01:21:29.000
01:27:29.833                : en:01:27:29.833
01:30:50.417                : en:01:30:50.417
01:33:48.000                : en:01:33:48.000
01:41:24.000                : en:01:41:24.000
01:52:20.417                : en:01:52:20.417
02:08:01.000                : en:02:08:01.000
02:15:58.208                : en:02:15:58.208
02:17:42.000                : en:02:17:42.000
02:37:39.625                : en:02:37:39.625

SINGLE DIRECT FAST LINKS
Code:
http://www.heroupload.us/bc92f84cc8484834/Guru.2007.720p.BluRay.nHD.x264-NhaNc3.mkv
Code:
http://filefloater.com/2zLy/Guru.2007.720p.BluRay.nHD.x264-NhaNc3.mkv
Buy Premium From My Links & Support Me