Code:
General
Unique ID                   : 182625345087699296244961708512985909283 (0x89645CB0ACC72AE1B1A3D7D4BD4E8823)
Complete name               : E:\Download C 3\Fukrey.2013.720p.BluRay.nHD.x264-NhaNc3.mkv
Format                      : Matroska
Format version              : Version 2
File size                   : 2.84 GiB
Duration                    : 2 h 20 min
Overall bit rate            : 2 880 kb/s
Encoded date                : UTC 2013-09-07 21:50:26
Writing application         : mkvmerge v4.9.1 ('Ich will') built on Jul 11 2011 23:53:15
Writing library             : libebml v1.2.1 + libmatroska v1.1.1

Video
ID                          : 1
Format                      : AVC
Format/Info                 : Advanced Video Codec
Format profile              : High@L4.1
Format settings, CABAC      : Yes
Format settings, RefFrames  : 8 frames
Codec ID                    : V_MPEG4/ISO/AVC
Duration                    : 2 h 20 min
Bit rate                    : 2 491 kb/s
Width                       : 1 280 pixels
Height                      : 544 pixels
Display aspect ratio        : 2.35:1
Frame rate mode             : Constant
Frame rate                  : 24.000 FPS
Color space                 : YUV
Chroma subsampling          : 4:2:0
Bit depth                   : 8 bits
Scan type                   : Progressive
Bits/(Pixel*Frame)          : 0.149
Stream size                 : 2.40 GiB (85%)
Writing library             : x264 core 130 r2273 b3065e6
Encoding settings           : cabac=1 / ref=8 / deblock=1:0:0 / analyse=0x3:0x113 / me=umh / subme=9 / psy=1 / psy_rd=1.00:0.00 / mixed_ref=1 / me_range=16 / chroma_me=1 / trellis=1 / 8x8dct=1 / cqm=0 / deadzone=21,11 / fast_pskip=1 / chroma_qp_offset=-2 / threads=8 / lookahead_threads=1 / sliced_threads=0 / nr=0 / decimate=1 / interlaced=0 / bluray_compat=0 / constrained_intra=0 / bframes=5 / b_pyramid=2 / b_adapt=1 / b_bias=0 / direct=1 / weightb=1 / open_gop=0 / weightp=2 / keyint=250 / keyint_min=23 / scenecut=40 / intra_refresh=0 / rc_lookahead=40 / rc=2pass / mbtree=1 / bitrate=2491 / ratetol=1.0 / qcomp=0.60 / qpmin=0 / qpmax=69 / qpstep=4 / cplxblur=20.0 / qblur=0.5 / vbv_maxrate=20000 / vbv_bufsize=15000 / nal_hrd=none / ip_ratio=1.40 / aq=1:1.00
Language                    : English
Default                     : Yes
Forced                      : No
Color range                 : Limited
Color primaries             : BT.709
Transfer characteristics    : BT.709
Matrix coefficients         : BT.709

Audio
ID                          : 2
Format                      : AC-3
Format/Info                 : Audio Coding 3
Format settings, Endianness : Big
Codec ID                    : A_AC3
Duration                    : 2 h 20 min
Bit rate mode               : Constant
Bit rate                    : 384 kb/s
Channel(s)                  : 6 channels
Channel positions           : Front: L C R, Side: L R, LFE
Sampling rate               : 48.0 kHz
Frame rate                  : 31.250 FPS (1536 SPF)
Bit depth                   : 16 bits
Compression mode            : Lossy
Stream size                 : 387 MiB (13%)
Language                    : English
Service kind                : Complete Main
Default                     : Yes
Forced                      : Yes

Text
ID                          : 3
Format                      : VobSub
Codec ID                    : S_VOBSUB
Codec ID/Info               : Picture based subtitle format used on DVDs
Language                    : Arabic
Default                     : No
Forced                      : No

Menu
00:00:00.000                : fr:00:00:00.000
00:04:00.042                : fr:00:04:00.042
00:16:22.500                : fr:00:16:22.500
00:20:01.542                : fr:00:20:01.542
00:27:53.917                : fr:00:27:53.917
00:43:03.625                : fr:00:43:03.625
00:56:14.667                : fr:00:56:14.667
01:09:09.500                : fr:01:09:09.500
01:25:54.000                : fr:01:25:54.000
01:29:47.958                : fr:01:29:47.958
01:46:31.792                : fr:01:46:31.792
01:48:36.417                : fr:01:48:36.417
02:00:31.917                : fr:02:00:31.917
02:06:20.250                : fr:02:06:20.250
02:10:02.833                : fr:02:10:02.833
02:13:06.375                : fr:02:13:06.375
02:15:21.792                : fr:02:15:21.792


SINGLE DIRECT FAST LINKS
Code:
http://www.heroupload.us/8dbb282a0a27b909/Fukrey.2013.720p.BluRay.nHD.x264-NhaNc3.mkv
Code:
http://filefloater.com/29Kn/Fukrey.2013.720p.BluRay.nHD.x264-NhaNc3.mkv
Buy Premium From My Links & Support Me