Code:
General
Unique ID                   : 244912854635590334053203215378528091402 (0xB8408003545A3C6DAF3C7FB784843D0A)
Complete name               : E:\Download C 3\Entertainment.2014.720p.BluRay.nHD.x264-NhaNc3.mkv
Format                      : Matroska
Format version              : Version 2
File size                   : 2.72 GiB
Duration                    : 2 h 19 min
Overall bit rate            : 2 805 kb/s
Encoded date                : UTC 2014-11-06 09:10:44
Writing application         : mkvmerge v4.9.1 ('Ich will') built on Jul 11 2011 23:53:15
Writing library             : libebml v1.2.1 + libmatroska v1.1.1
IsTruncated                 : Yes

Video
ID                          : 1
Format                      : AVC
Format/Info                 : Advanced Video Codec
Format profile              : High@L4.1
Format settings, CABAC      : Yes
Format settings, RefFrames  : 8 frames
Codec ID                    : V_MPEG4/ISO/AVC
Duration                    : 2 h 19 min
Bit rate                    : 2 430 kb/s
Width                       : 1 280 pixels
Height                      : 544 pixels
Display aspect ratio        : 2.35:1
Frame rate mode             : Constant
Frame rate                  : 23.976 FPS
Color space                 : YUV
Chroma subsampling          : 4:2:0
Bit depth                   : 8 bits
Scan type                   : Progressive
Bits/(Pixel*Frame)          : 0.146
Stream size                 : 2.30 GiB (84%)
Writing library             : x264 core 130 r2273 b3065e6
Encoding settings           : cabac=1 / ref=8 / deblock=1:0:0 / analyse=0x3:0x113 / me=umh / subme=9 / psy=1 / psy_rd=1.00:0.00 / mixed_ref=1 / me_range=16 / chroma_me=1 / trellis=1 / 8x8dct=1 / cqm=0 / deadzone=21,11 / fast_pskip=1 / chroma_qp_offset=-2 / threads=8 / lookahead_threads=1 / sliced_threads=0 / nr=0 / decimate=1 / interlaced=0 / bluray_compat=0 / constrained_intra=0 / bframes=5 / b_pyramid=2 / b_adapt=1 / b_bias=0 / direct=1 / weightb=1 / open_gop=0 / weightp=2 / keyint=250 / keyint_min=23 / scenecut=40 / intra_refresh=0 / rc_lookahead=40 / rc=2pass / mbtree=1 / bitrate=2430 / ratetol=1.0 / qcomp=0.60 / qpmin=0 / qpmax=69 / qpstep=4 / cplxblur=20.0 / qblur=0.5 / vbv_maxrate=20000 / vbv_bufsize=15000 / nal_hrd=none / ip_ratio=1.40 / aq=1:1.00
Language                    : English
Default                     : Yes
Forced                      : No
Color range                 : Limited
Color primaries             : BT.709
Transfer characteristics    : BT.709
Matrix coefficients         : BT.709

Audio
ID                          : 2
Format                      : AC-3
Format/Info                 : Audio Coding 3
Format settings, Endianness : Big
Codec ID                    : A_AC3
Duration                    : 2 h 19 min
Bit rate mode               : Constant
Bit rate                    : 384 kb/s
Channel(s)                  : 6 channels
Channel positions           : Front: L C R, Side: L R, LFE
Sampling rate               : 48.0 kHz
Frame rate                  : 31.250 FPS (1536 SPF)
Bit depth                   : 16 bits
Compression mode            : Lossy
Stream size                 : 382 MiB (14%)
Language                    : English
Service kind                : Complete Main
Default                     : Yes
Forced                      : Yes

Text
ID                          : 3
Format                      : UTF-8
Codec ID                    : S_TEXT/UTF8
Codec ID/Info               : UTF-8 Plain Text
Title                       : English Subtitles
Language                    : English
Default                     : Yes
Forced                      : No

Menu
00:00:00.000                : en:00:00:00.000
00:11:33.693                : en:00:11:33.693
00:15:20.920                : en:00:15:20.920
00:19:46.185                : en:00:19:46.185
00:25:17.266                : en:00:25:17.266
00:27:04.623                : en:00:27:04.623
00:29:57.546                : en:00:29:57.546
00:33:14.868                : en:00:33:14.868
00:43:50.086                : en:00:43:50.086
00:53:22.574                : en:00:53:22.574
00:58:21.164                : en:00:58:21.164
01:06:39.621                : en:01:06:39.621
01:13:39.040                : en:01:13:39.040
01:21:30.761                : en:01:21:30.761
01:34:15.859                : en:01:34:15.859
01:39:05.565                : en:01:39:05.565
01:47:29.443                : en:01:47:29.443
01:55:20.914                : en:01:55:20.914
01:58:06.371                : en:01:58:06.371
02:14:17.508                : en:02:14:17.508

SINGLE DIRECT FAST LINKS
Code:
http://www.heroupload.us/d6dce3fe7b1c7d00/Entertainment.2014.720p.BluRay.nHD.x264-NhaNc3.mkv
Code:
http://filefloater.com/29Kh/Entertainment.2014.720p.BluRay.nHD.x264-NhaNc3.mkv

Buy Premium From My Links & Support Me