Code:
General
Unique ID                   : 251446064636953975442858831821332766492 (0xBD2AC0229ECBC79AB517F8605F5F5F1C)
Complete name               : E:\Download C 3\Double.Dhamaal.2011.720p.BluRay.nHD.x264-NhaNc3.mkv
Format                      : Matroska
Format version              : Version 2
File size                   : 2.74 GiB
Duration                    : 2 h 17 min
Overall bit rate            : 2 850 kb/s
Encoded date                : UTC 2011-09-09 12:09:45
Writing application         : mkvmerge v4.9.1 ('Ich will') built on Jul 11 2011 23:53:15
Writing library             : libebml v1.2.1 + libmatroska v1.1.1

Video
ID                          : 1
Format                      : AVC
Format/Info                 : Advanced Video Codec
Format profile              : High@L4.1
Format settings, CABAC      : Yes
Format settings, RefFrames  : 5 frames
Codec ID                    : V_MPEG4/ISO/AVC
Duration                    : 2 h 17 min
Bit rate                    : 2 454 kb/s
Width                       : 1 280 pixels
Height                      : 544 pixels
Display aspect ratio        : 2.35:1
Frame rate mode             : Constant
Frame rate                  : 23.976 FPS
Color space                 : YUV
Chroma subsampling          : 4:2:0
Bit depth                   : 8 bits
Scan type                   : Progressive
Bits/(Pixel*Frame)          : 0.147
Stream size                 : 2.32 GiB (85%)
Writing library             : x264 core 116 r2044 392e762
Encoding settings           : cabac=1 / ref=5 / deblock=1:0:0 / analyse=0x3:0x113 / me=umh / subme=9 / psy=1 / psy_rd=1.00:0.00 / mixed_ref=1 / me_range=16 / chroma_me=1 / trellis=1 / 8x8dct=1 / cqm=0 / deadzone=21,11 / fast_pskip=1 / chroma_qp_offset=-2 / threads=12 / sliced_threads=0 / nr=0 / decimate=1 / interlaced=0 / bluray_compat=0 / constrained_intra=0 / bframes=5 / b_pyramid=2 / b_adapt=1 / b_bias=0 / direct=1 / weightb=1 / open_gop=0 / weightp=2 / keyint=250 / keyint_min=23 / scenecut=40 / intra_refresh=0 / rc_lookahead=40 / rc=2pass / mbtree=1 / bitrate=2454 / ratetol=1.0 / qcomp=0.60 / qpmin=0 / qpmax=69 / qpstep=4 / cplxblur=20.0 / qblur=0.5 / vbv_maxrate=20000 / vbv_bufsize=15000 / nal_hrd=none / ip_ratio=1.40 / aq=1:1.00
Language                    : English
Default                     : Yes
Forced                      : No
Color range                 : Limited
Color primaries             : BT.709
Transfer characteristics    : BT.709
Matrix coefficients         : BT.709

Audio
ID                          : 2
Format                      : AC-3
Format/Info                 : Audio Coding 3
Format settings, Endianness : Big
Codec ID                    : A_AC3
Duration                    : 2 h 17 min
Bit rate mode               : Constant
Bit rate                    : 384 kb/s
Channel(s)                  : 6 channels
Channel positions           : Front: L C R, Side: L R, LFE
Sampling rate               : 48.0 kHz
Frame rate                  : 31.250 FPS (1536 SPF)
Bit depth                   : 16 bits
Compression mode            : Lossy
Stream size                 : 379 MiB (13%)
Language                    : English
Service kind                : Complete Main
Default                     : Yes
Forced                      : Yes

Text #1
ID                          : 3
Format                      : UTF-8
Codec ID                    : S_TEXT/UTF8
Codec ID/Info               : UTF-8 Plain Text
Title                       : DDR
Language                    : English
Default                     : Yes
Forced                      : No

Text #2
ID                          : 4
Format                      : VobSub
Muxing mode                 : zlib
Codec ID                    : S_VOBSUB
Codec ID/Info               : Picture based subtitle format used on DVDs
Title                       : DDR
Language                    : Dutch
Default                     : No
Forced                      : No

Text #3
ID                          : 5
Format                      : VobSub
Muxing mode                 : zlib
Codec ID                    : S_VOBSUB
Codec ID/Info               : Picture based subtitle format used on DVDs
Title                       : DDR
Language                    : Arabic
Default                     : No
Forced                      : No

Menu
00:00:00.000                : en:00:00:00.000
00:02:01.120                : en:00:02:01.120
00:05:16.316                : en:00:05:16.316
00:13:16.796                : en:00:13:16.796
00:20:38.654                : en:00:20:38.654
00:31:54.913                : en:00:31:54.913
00:42:59.577                : en:00:42:59.577
00:50:18.015                : en:00:50:18.015
00:53:51.228                : en:00:53:51.228
01:01:48.705                : en:01:01:48.705
01:08:24.100                : en:01:08:24.100
01:17:19.635                : en:01:17:19.635
01:29:24.359                : en:01:29:24.359
01:36:41.796                : en:01:36:41.796
01:39:54.988                : en:01:39:54.988
01:57:45.058                : en:01:57:45.058
02:03:09.382                : en:02:03:09.382
02:12:34.947                : en:02:12:34.947

SINGLE DIRECT FAST LINKS
Code:
http://www.heroupload.us/70c028c0b712cc27/Double.Dhamaal.2011.720p.BluRay.nHD.x264-NhaNc3.mkv
Code:
http://filefloater.com/29K6/Double.Dhamaal.2011.720p.BluRay.nHD.x264-NhaNc3.mkv
Buy Premium From My Links & Support Me