Code:
General
Unique ID                   : 251475675626790574489334980167831690838 (0xBD307411DB331E829D54E0A6E52C9E56)
Complete name               : E:\Download C 3\Dil.Chahta.Hai.2001.720p.BluRay.nHD.x264-NhaNc3.mkv
Format                      : Matroska
Format version              : Version 2
File size                   : 3.16 GiB
Duration                    : 3 h 5 min
Overall bit rate            : 2 441 kb/s
Encoded date                : UTC 2010-09-10 15:48:43
Writing application         : mkvmerge v4.0.0 ('The Stars were mine') built on Jun  6 2010 16:18:42
Writing library             : libebml v1.0.0 + libmatroska v1.0.0
Attachments                 : Namastey London (2007) BDrip 1080P ESub Chapters [DDR]_Track3.sub

Video
ID                          : 1
Format                      : AVC
Format/Info                 : Advanced Video Codec
Format profile              : High@L4.1
Format settings, CABAC      : Yes
Format settings, RefFrames  : 8 frames
Codec ID                    : V_MPEG4/ISO/AVC
Duration                    : 3 h 5 min
Bit rate                    : 2 111 kb/s
Width                       : 1 280 pixels
Height                      : 544 pixels
Display aspect ratio        : 2.35:1
Frame rate mode             : Constant
Frame rate                  : 24.000 FPS
Color space                 : YUV
Chroma subsampling          : 4:2:0
Bit depth                   : 8 bits
Scan type                   : Progressive
Bits/(Pixel*Frame)          : 0.126
Stream size                 : 2.68 GiB (85%)
Writing library             : x264 core 98 r1649 20cbe10
Encoding settings           : cabac=1 / ref=8 / deblock=1:0:0 / analyse=0x3:0x113 / me=umh / subme=10 / psy=1 / psy_rd=1.00:0.00 / mixed_ref=1 / me_range=16 / chroma_me=1 / trellis=2 / 8x8dct=1 / cqm=2 / deadzone=21,11 / fast_pskip=1 / chroma_qp_offset=-2 / threads=9 / sliced_threads=0 / nr=0 / decimate=1 / interlaced=0 / constrained_intra=0 / bframes=3 / b_pyramid=0 / b_adapt=2 / b_bias=0 / direct=3 / weightb=1 / weightp=2 / keyint=250 / keyint_min=25 / scenecut=40 / intra_refresh=0 / rc_lookahead=40 / rc=2pass / mbtree=1 / bitrate=2111 / ratetol=1.0 / qcomp=0.60 / qpmin=10 / qpmax=51 / qpstep=4 / cplxblur=20.0 / qblur=0.5 / vbv_maxrate=50000 / vbv_bufsize=50000 / ip_ratio=1.40 / aq=1:1.00 / nal_hrd=none
Language                    : English
Default                     : No
Forced                      : No

Audio
ID                          : 2
Format                      : AC-3
Format/Info                 : Audio Coding 3
Format settings, Endianness : Big
Codec ID                    : A_AC3
Duration                    : 3 h 5 min
Bit rate mode               : Constant
Bit rate                    : 320 kb/s
Channel(s)                  : 6 channels
Channel positions           : Front: L C R, Side: L R, LFE
Sampling rate               : 48.0 kHz
Frame rate                  : 31.250 FPS (1536 SPF)
Bit depth                   : 16 bits
Compression mode            : Lossy
Stream size                 : 424 MiB (13%)
Language                    : Hindi
Service kind                : Complete Main
Default                     : Yes
Forced                      : No

Text
ID                          : 3
Format                      : UTF-8
Codec ID                    : S_TEXT/UTF8
Codec ID/Info               : UTF-8 Plain Text
Language                    : English
Default                     : Yes
Forced                      : No

SINGLE DIRECT FAST LINKS
Code:
http://www.heroupload.us/63a3ecb0db94fd9f/Dil.Chahta.Hai.2001.720p.BluRay.nHD.x264-NhaNc3.mkv

Code:
http://filefloater.com/1JJ0/Dil.Chahta.Hai.2001.720p.BluRay.nHD.x264-NhaNc3.mkv


Buy Premium From My Links & Support Me