Code:
General
Unique ID                   : 223660222090168428657907193638210901894 (0xA843645428E3BB8AA14290E637321786)
Complete name               : E:\Download C 3\Bollywood 720p BluRay nHD Mega Pack x264 NhaNc3\Desi.Boyz.2011.720p.BluRay.nHD.x264-NhaNc3.mkv
Format                      : Matroska
Format version              : Version 2
File size                   : 2.44 GiB
Duration                    : 2 h 1 min
Overall bit rate            : 2 876 kb/s
Encoded date                : UTC 2012-03-07 06:21:13
Writing application         : mkvmerge v4.8.0 ('I Got The...') built on May 24 2011 03:12:58
Writing library             : libebml v1.2.0 + libmatroska v1.1.0

Video
ID                          : 1
Format                      : AVC
Format/Info                 : Advanced Video Codec
Format profile              : High@L4.1
Format settings, CABAC      : Yes
Format settings, RefFrames  : 5 frames
Codec ID                    : V_MPEG4/ISO/AVC
Duration                    : 2 h 1 min
Bit rate                    : 2 490 kb/s
Width                       : 1 280 pixels
Height                      : 544 pixels
Display aspect ratio        : 2.35:1
Frame rate mode             : Constant
Frame rate                  : 24.000 FPS
Color space                 : YUV
Chroma subsampling          : 4:2:0
Bit depth                   : 8 bits
Scan type                   : Progressive
Bits/(Pixel*Frame)          : 0.149
Stream size                 : 2.07 GiB (85%)
Writing library             : x264 core 115 r2008 4c552d8
Encoding settings           : cabac=1 / ref=5 / deblock=1:0:0 / analyse=0x3:0x113 / me=umh / subme=9 / psy=1 / psy_rd=1.00:0.00 / mixed_ref=1 / me_range=16 / chroma_me=1 / trellis=1 / 8x8dct=1 / cqm=0 / deadzone=21,11 / fast_pskip=1 / chroma_qp_offset=-2 / threads=12 / sliced_threads=0 / nr=0 / decimate=1 / interlaced=0 / bluray_compat=0 / constrained_intra=0 / bframes=5 / b_pyramid=2 / b_adapt=1 / b_bias=0 / direct=1 / weightb=1 / open_gop=0 / weightp=2 / keyint=250 / keyint_min=24 / scenecut=40 / intra_refresh=0 / rc_lookahead=40 / rc=2pass / mbtree=1 / bitrate=2490 / ratetol=1.0 / qcomp=0.60 / qpmin=0 / qpmax=69 / qpstep=4 / cplxblur=20.0 / qblur=0.5 / vbv_maxrate=20000 / vbv_bufsize=15000 / nal_hrd=none / ip_ratio=1.40 / aq=1:1.00
Language                    : English
Default                     : Yes
Forced                      : No
Color range                 : Limited
Color primaries             : BT.709
Transfer characteristics    : BT.709
Matrix coefficients         : BT.709

Audio
ID                          : 2
Format                      : AC-3
Format/Info                 : Audio Coding 3
Format settings, Endianness : Big
Codec ID                    : A_AC3
Duration                    : 2 h 1 min
Bit rate mode               : Constant
Bit rate                    : 384 kb/s
Channel(s)                  : 6 channels
Channel positions           : Front: L C R, Side: L R, LFE
Sampling rate               : 48.0 kHz
Frame rate                  : 31.250 FPS (1536 SPF)
Bit depth                   : 16 bits
Compression mode            : Lossy
Stream size                 : 334 MiB (13%)
Language                    : English
Service kind                : Complete Main
Default                     : Yes
Forced                      : Yes


SINGLE DIRECT FAST LINKS
Code:
http://www.heroupload.us/ac5a104989d6971f/Desi.Boyz.2011.720p.BluRay.nHD.x264-NhaNc3.mkv
Code:
http://filefloater.com/29Lg/Desi.Boyz.2011.720p.BluRay.nHD.x264-NhaNc3.mkv


Buy Premium From My Links & Support Me