Code:
General
Unique ID                   : 236839356710388350320139973567345045082 (0xB22D99D5396C0FA68C4659A9D74BAE5A)
Complete name               : E:\Download C 3\Bollywood 720p BluRay nHD Mega Pack x264 NhaNc3\Dabangg.2.2012.720p.BluRay.nHD.x264-NhaNc3.mkv
Format                      : Matroska
Format version              : Version 2
File size                   : 2.44 GiB
Duration                    : 2 h 3 min
Overall bit rate            : 2 826 kb/s
Encoded date                : UTC 2013-03-11 23:42:11
Writing application         : mkvmerge v2.9.7 ('Tenderness') built on Jul  1 2009 18:43:35
Writing library             : libebml v0.7.7 + libmatroska v0.8.1

Video
ID                          : 1
Format                      : AVC
Format/Info                 : Advanced Video Codec
Format profile              : High@L4.1
Format settings, CABAC      : Yes
Format settings, RefFrames  : 9 frames
Codec ID                    : V_MPEG4/ISO/AVC
Duration                    : 2 h 3 min
Bit rate                    : 2 443 kb/s
Width                       : 1 280 pixels
Height                      : 544 pixels
Display aspect ratio        : 2.35:1
Frame rate mode             : Constant
Frame rate                  : 24.000 FPS
Color space                 : YUV
Chroma subsampling          : 4:2:0
Bit depth                   : 8 bits
Scan type                   : Progressive
Bits/(Pixel*Frame)          : 0.146
Stream size                 : 2.06 GiB (84%)
Writing library             : x264 core 130 r2273 b3065e6
Encoding settings           : cabac=1 / ref=9 / deblock=1:-3:-3 / analyse=0x3:0x113 / me=umh / subme=9 / psy=1 / psy_rd=1.00:0.00 / mixed_ref=1 / me_range=16 / chroma_me=1 / trellis=1 / 8x8dct=1 / cqm=0 / deadzone=21,11 / fast_pskip=1 / chroma_qp_offset=-2 / threads=12 / lookahead_threads=1 / sliced_threads=0 / nr=0 / decimate=1 / interlaced=0 / bluray_compat=0 / constrained_intra=0 / bframes=5 / b_pyramid=2 / b_adapt=1 / b_bias=0 / direct=1 / weightb=1 / open_gop=0 / weightp=2 / keyint=250 / keyint_min=24 / scenecut=40 / intra_refresh=0 / rc_lookahead=40 / rc=2pass / mbtree=1 / bitrate=2443 / ratetol=1.0 / qcomp=0.60 / qpmin=0 / qpmax=69 / qpstep=4 / cplxblur=20.0 / qblur=0.5 / vbv_maxrate=20000 / vbv_bufsize=15000 / nal_hrd=none / ip_ratio=1.40 / aq=1:1.00
Language                    : English
Default                     : Yes
Forced                      : No
Color range                 : Limited
Color primaries             : BT.709
Transfer characteristics    : BT.709
Matrix coefficients         : BT.709

Audio
ID                          : 2
Format                      : AC-3
Format/Info                 : Audio Coding 3
Format settings, Endianness : Big
Codec ID                    : A_AC3
Duration                    : 2 h 3 min
Bit rate mode               : Constant
Bit rate                    : 384 kb/s
Channel(s)                  : 6 channels
Channel positions           : Front: L C R, Side: L R, LFE
Sampling rate               : 48.0 kHz
Frame rate                  : 31.250 FPS (1536 SPF)
Bit depth                   : 16 bits
Compression mode            : Lossy
Stream size                 : 339 MiB (14%)
Language                    : English
Service kind                : Complete Main
Default                     : Yes
Forced                      : Yes

Text
ID                          : 3
Format                      : UTF-8
Codec ID                    : S_TEXT/UTF8
Codec ID/Info               : UTF-8 Plain Text
Title                       : English Subs - DDR
Language                    : English
Default                     : Yes
Forced                      : No


SINGLE DIRECT FAST LINKS
Code:
http://www.heroupload.us/3728b5df9a3dd03a/Dabangg.2.2012.720p.BluRay.nHD.x264-NhaNc3.mkv
Code:
http://filefloater.com/1JK8/Dabangg.2.2012.720p.BluRay.nHD.x264-NhaNc3.mkv


Buy Premium From My Links & Support Me