Code:
General
Unique ID                   : 183771144841806115149616611234271855679 (0x8A4108FAC6485ABD922A3EAB0C5E043F)
Complete name               : E:\Download C 3\Bollywood 720p BluRay nHD Mega Pack x264 NhaNc3\Daawat-E-Ishq.2014.720p.BluRay.nHD.x264-NhaNc3.mkv
Format                      : Matroska
Format version              : Version 2
File size                   : 2.32 GiB
Duration                    : 1 h 58 min
Overall bit rate            : 2 810 kb/s
Encoded date                : UTC 2014-11-11 21:09:05
Writing application         : mkvmerge v4.9.1 ('Ich will') built on Jul 11 2011 23:53:15
Writing library             : libebml v1.2.1 + libmatroska v1.1.1
IsTruncated                 : Yes

Video
ID                          : 1
Format                      : AVC
Format/Info                 : Advanced Video Codec
Format profile              : High@L4.1
Format settings, CABAC      : Yes
Format settings, RefFrames  : 8 frames
Codec ID                    : V_MPEG4/ISO/AVC
Duration                    : 1 h 58 min
Bit rate                    : 2 449 kb/s
Width                       : 1 280 pixels
Height                      : 544 pixels
Display aspect ratio        : 2.35:1
Frame rate mode             : Constant
Frame rate                  : 24.000 FPS
Color space                 : YUV
Chroma subsampling          : 4:2:0
Bit depth                   : 8 bits
Scan type                   : Progressive
Bits/(Pixel*Frame)          : 0.147
Stream size                 : 1.96 GiB (84%)
Writing library             : x264 core 130 r2273 b3065e6
Encoding settings           : cabac=1 / ref=8 / deblock=1:0:0 / analyse=0x3:0x113 / me=umh / subme=9 / psy=1 / psy_rd=1.00:0.00 / mixed_ref=1 / me_range=16 / chroma_me=1 / trellis=1 / 8x8dct=1 / cqm=0 / deadzone=21,11 / fast_pskip=1 / chroma_qp_offset=-2 / threads=8 / lookahead_threads=1 / sliced_threads=0 / nr=0 / decimate=1 / interlaced=0 / bluray_compat=0 / constrained_intra=0 / bframes=5 / b_pyramid=2 / b_adapt=1 / b_bias=0 / direct=1 / weightb=1 / open_gop=0 / weightp=2 / keyint=250 / keyint_min=23 / scenecut=40 / intra_refresh=0 / rc_lookahead=40 / rc=2pass / mbtree=1 / bitrate=2449 / ratetol=1.0 / qcomp=0.60 / qpmin=0 / qpmax=69 / qpstep=4 / cplxblur=20.0 / qblur=0.5 / vbv_maxrate=20000 / vbv_bufsize=15000 / nal_hrd=none / ip_ratio=1.40 / aq=1:1.00
Language                    : English
Default                     : Yes
Forced                      : No
Color range                 : Limited
Color primaries             : BT.709
Transfer characteristics    : BT.709
Matrix coefficients         : BT.709

Audio
ID                          : 2
Format                      : AC-3
Format/Info                 : Audio Coding 3
Format settings, Endianness : Big
Codec ID                    : A_AC3
Duration                    : 1 h 58 min
Bit rate mode               : Constant
Bit rate                    : 384 kb/s
Channel(s)                  : 6 channels
Channel positions           : Front: L C R, Side: L R, LFE
Sampling rate               : 48.0 kHz
Frame rate                  : 31.250 FPS (1536 SPF)
Bit depth                   : 16 bits
Compression mode            : Lossy
Stream size                 : 325 MiB (14%)
Language                    : English
Service kind                : Complete Main
Default                     : Yes
Forced                      : Yes

Menu
00:00:00.000                : en:00:00:00.000
00:02:54.000                : en:00:02:54.000
00:07:42.333                : en:00:07:42.333
00:13:23.167                : en:00:13:23.167
00:16:59.625                : en:00:16:59.625
00:19:24.583                : en:00:19:24.583
00:27:06.958                : en:00:27:06.958
00:34:29.917                : en:00:34:29.917
00:41:44.208                : en:00:41:44.208
00:46:06.750                : en:00:46:06.750
00:57:36.000                : en:00:57:36.000
01:02:21.625                : en:01:02:21.625
01:08:25.625                : en:01:08:25.625
01:14:09.625                : en:01:14:09.625
01:20:23.500                : en:01:20:23.500
01:25:30.167                : en:01:25:30.167
01:29:01.625                : en:01:29:01.625
01:31:01.375                : en:01:31:01.375
01:36:39.708                : en:01:36:39.708
01:38:00.625                : en:01:38:00.625
01:42:27.625                : en:01:42:27.625
01:45:24.250                : en:01:45:24.250
01:54:13.458                : en:01:54:13.458
SINGLE DIRECT FAST LINKS
Code:
http://www.heroupload.us/839b2d3ecc048116/Daawat-E-Ishq.2014.720p.BluRay.nHD.x264-NhaNc3.mkv
Code:
http://filefloater.com/1JK3/Daawat-E-Ishq.2014.720p.BluRay.nHD.x264-NhaNc3.mkv

Buy Premium From My Links & Support Me