Code:
General
Unique ID                   : 210659618075311376052088790468248377544 (0x9E7B9110226AECC6B1747D75E9B298C8)
Complete name               : E:\Download C 3\Bollywood 720p BluRay nHD Mega Pack x264 NhaNc3\D-Day.2013.720p.BluRay.nHD.x264-NhaNc3.mkv
Format                      : Matroska
Format version              : Version 2
File size                   : 3.02 GiB
Duration                    : 2 h 31 min
Overall bit rate            : 2 850 kb/s
Encoded date                : UTC 2013-09-09 21:48:33
Writing application         : mkvmerge v4.9.1 ('Ich will') built on Jul 11 2011 23:53:15
Writing library             : libebml v1.2.1 + libmatroska v1.1.1

Video
ID                          : 1
Format                      : AVC
Format/Info                 : Advanced Video Codec
Format profile              : High@L4.1
Format settings, CABAC      : Yes
Format settings, RefFrames  : 8 frames
Codec ID                    : V_MPEG4/ISO/AVC
Duration                    : 2 h 31 min
Bit rate                    : 2 467 kb/s
Width                       : 1 280 pixels
Height                      : 544 pixels
Display aspect ratio        : 2.35:1
Frame rate mode             : Constant
Frame rate                  : 24.000 FPS
Color space                 : YUV
Chroma subsampling          : 4:2:0
Bit depth                   : 8 bits
Scan type                   : Progressive
Bits/(Pixel*Frame)          : 0.148
Stream size                 : 2.56 GiB (85%)
Writing library             : x264 core 130 r2273 b3065e6
Encoding settings           : cabac=1 / ref=8 / deblock=1:0:0 / analyse=0x3:0x113 / me=umh / subme=9 / psy=1 / psy_rd=1.00:0.00 / mixed_ref=1 / me_range=16 / chroma_me=1 / trellis=1 / 8x8dct=1 / cqm=0 / deadzone=21,11 / fast_pskip=1 / chroma_qp_offset=-2 / threads=8 / lookahead_threads=1 / sliced_threads=0 / nr=0 / decimate=1 / interlaced=0 / bluray_compat=0 / constrained_intra=0 / bframes=5 / b_pyramid=2 / b_adapt=1 / b_bias=0 / direct=1 / weightb=1 / open_gop=0 / weightp=2 / keyint=250 / keyint_min=23 / scenecut=40 / intra_refresh=0 / rc_lookahead=40 / rc=2pass / mbtree=1 / bitrate=2467 / ratetol=1.0 / qcomp=0.60 / qpmin=0 / qpmax=69 / qpstep=4 / cplxblur=20.0 / qblur=0.5 / vbv_maxrate=20000 / vbv_bufsize=15000 / nal_hrd=none / ip_ratio=1.40 / aq=1:1.00
Language                    : English
Default                     : Yes
Forced                      : No
Color range                 : Limited
Color primaries             : BT.709
Transfer characteristics    : BT.709
Matrix coefficients         : BT.709

Audio
ID                          : 2
Format                      : AC-3
Format/Info                 : Audio Coding 3
Format settings, Endianness : Big
Codec ID                    : A_AC3
Duration                    : 2 h 31 min
Bit rate mode               : Constant
Bit rate                    : 384 kb/s
Channel(s)                  : 6 channels
Channel positions           : Front: L C R, Side: L R, LFE
Sampling rate               : 48.0 kHz
Frame rate                  : 31.250 FPS (1536 SPF)
Bit depth                   : 16 bits
Compression mode            : Lossy
Stream size                 : 417 MiB (13%)
Language                    : English
Service kind                : Complete Main
Default                     : Yes
Forced                      : Yes

Text
ID                          : 3
Format                      : UTF-8
Codec ID                    : S_TEXT/UTF8
Codec ID/Info               : UTF-8 Plain Text
Language                    : English
Default                     : Yes
Forced                      : No

Menu
00:00:00.000                : en:00:00:00.000
00:01:50.042                : en:00:01:50.042
00:06:56.292                : en:00:06:56.292
00:13:11.250                : en:00:13:11.250
00:17:28.000                : en:00:17:28.000
00:27:59.250                : en:00:27:59.250
00:30:53.750                : en:00:30:53.750
00:34:28.083                : en:00:34:28.083
00:38:26.542                : en:00:38:26.542
00:46:57.417                : en:00:46:57.417
00:49:32.000                : en:00:49:32.000
00:58:00.000                : en:00:58:00.000
01:05:09.833                : en:01:05:09.833
01:17:15.000                : en:01:17:15.000
01:25:33.375                : en:01:25:33.375
01:32:18.542                : en:01:32:18.542
01:37:56.458                : en:01:37:56.458
01:48:20.542                : en:01:48:20.542
01:59:35.958                : en:01:59:35.958
02:12:28.458                : en:02:12:28.458
02:17:46.542                : en:02:17:46.542
02:25:42.417                : en:02:25:42.417


SINGLE DIRECT FAST LINKS
Code:
http://www.heroupload.us/c94f0c9a5b07c761/D-Day.2013.720p.BluRay.nHD.x264-NhaNc3.mkv
Code:
http://filefloater.com/29L8/D-Day.2013.720p.BluRay.nHD.x264-NhaNc3.mkv

Buy Premium From My Links & Support Me