Avatar (2009) DVDSCR XViD IMAGiNE



IMDB Rating : 8.4/10

IMDB Link :
Code:
http://www.imdb.com/title/tt0499549/
When his brother is killed in battle, paraplegic Marine Jake Sully decides to take his place in a mission on the distant world of Pandora. There he learns of greedy corporate figurehead Parker Selfridge's intentions of driving off the native humanoid "Na'vi" in order to mine for the precious material scattered throughout their rich woodland. In exchange for the spinal surgery that will fix his legs, Jake gathers intel for the cooperating military unit spearheaded by gung-ho Colonel Quaritch, while simultaneously attempting to infiltrate the Na'vi people with the use of an "avatar" identity. While Jake begins to bond with the native tribe and quickly falls in love with the beautiful alien Neytiri, the restless Colonel moves forward with his ruthless extermination tactics, forcing the soldier to take a stand - and fight back in an epic battle for the fate of Pandora.
Code:
********************************************************************************************************************
                                       Avatar DVDScr xvid - IMAGiNE.
********************************************************************************************************************

Ripper ...........: IMAGiNE                                      IMDB Rating.......:8.6/10
Video Codec.......: XVID                                         Release Date......:2010-12-31
Audio Codec.......:AC3                                           Theatre Date......:12/18/09
Audio Bitrate.....:192                                           Runtime...........:162 mn
Subtitles.........:Harcoded Where Nedded                                           Language..........:ENGLISH
Resolution...... 656 x 368                                       IMDB URL..........:http://www.imdb.com/title/tt0499549/

DETAILS:

Format                           : AVI
Format/Info                      : Audio Video Interleave
Format profile                   : OpenDML
File size                        : 2.06 GiB
Duration                         : 2h 36mn
Overall bit rate                 : 1 876 Kbps
Writing application              : VirtualDubMod 1.5.10.2 (build 2540/release)
Writing library                  : VirtualDubMod build 2540/release

Video
ID                               : 0
Format                           : MPEG-4 Visual
Format profile                   : Advanced [email protected]
Format settings, BVOP            : Yes
Format settings, QPel            : No
Format settings, GMC             : No warppoints
Format settings, Matrix          : Default (MPEG)
Codec ID                         : XVID
Codec ID/Hint                    : XviD
Duration                         : 2h 36mn
Bit rate                         : 1 672 Kbps
Width                            : 656 pixels
Height                           : 368 pixels
Display aspect ratio             : 16:9
Frame rate                       : 23.976 fps
Resolution                       : 8 bits
Colorimetry                      : 4:2:0
Scan type                        : Progressive
Bits/(Pixel*Frame)               : 0.289
Stream size                      : 1.83 GiB (89%)
Writing library                  : XviD 1.2.1 (UTC 2008-12-04)

Audio
ID                               : 1
Format                           : AC-3
Format/Info                      : Audio Coding 3
Codec ID                         : 2000
Duration                         : 2h 36mn
Bit rate mode                    : Constant
Bit rate                         : 192 Kbps
Channel(s)                       : 2 channels
Channel positions                : L R
Sampling rate                    : 48.0 KHz
Stream size                      : 216 MiB (10%)
Alignment                        : Split accross interleaves
Interleave, duration             : 42 ms (1.00 video frame)
Interleave, preload duration     : 500 ms
Screens:













Download:
Code:
http://hotfile.com/dl/27231252/560d964/ATR.dvdsrc.imagine.part01.rar.html
http://hotfile.com/dl/27235022/e5eef4e/ATR.dvdsrc.imagine.part02.rar.html
http://hotfile.com/dl/27235085/ee75924/ATR.dvdsrc.imagine.part03.rar.html
http://hotfile.com/dl/27235236/4852805/ATR.dvdsrc.imagine.part04.rar.html
http://hotfile.com/dl/27235321/e476068/ATR.dvdsrc.imagine.part05.rar.html
http://hotfile.com/dl/27235527/56f9b45/ATR.dvdsrc.imagine.part06.rar.html
http://hotfile.com/dl/27236044/76233cf/ATR.dvdsrc.imagine.part07.rar.html
http://hotfile.com/dl/27236197/8c88bad/ATR.dvdsrc.imagine.part08.rar.html
http://hotfile.com/dl/27238498/348148f/ATR.dvdsrc.imagine.part09.rar.html
http://hotfile.com/dl/27237268/31b2923/ATR.dvdsrc.imagine.part10.rar.html
http://hotfile.com/dl/27236855/b4a2db0/ATR.dvdsrc.imagine.part11.rar.html
http://hotfile.com/dl/27236407/f4af2f0/ATR.dvdsrc.imagine.part12.rar.html