Code:
http://www.imdb.com/title/tt1311060/
Titulo original A.C.O.D. (Adult Children Of Divorce)
Ano 2013
Duracion 90 min.
Pais Estados Unidos
Director Stuart Zicherman
Guion Ben Karlin, Stuart Zicherman
Musica Nick Urata
Fotografia John Bailey
Reparto Adam Scott, Richard Jenkins, Catherine O'Hara, Amy Poehler, Jessica Alba, Jane Lynch, Mary Elizabeth Winstead, Clark Duke
Productora The Film Arcade / Black Bear Pictures
Genero Comedia
Sinopsis Carter se ha pasado gran parte de su vida mediando en las luchas entre sus padres divorciados, y al mismo tiempo asumiendo el papel de figura protectora de su hermano menor, Trey

Code:
General
A.C.O.D Adult Children Of Divorce (2013) [FULL 1080p Dual].mkv
Format : Matroska
Format version : Version 4 / Version 2
File size : 2.38 GiB
Duration : 1h 27mn
Overall bit rate : 3 892 Kbps
Movie name : A.C.O.D Adult Children Of Divorce (2013) [FULL 1080p Dual]
Encoded date : UTC 2014-01-08 03:32:42
Writing application : mkvmerge v6.0.0 ('Coming Up For Air') built on Jan 20 2013 09:52:00
Writing library : libebml v1.3.0 + libmatroska v1.4.0
Video
ID : 1
Format : AVC
Format/Info : Advanced Video Codec
Format profile : High@L4.1
Format settings, CABAC : Yes
Format settings, ReFrames : 2 frames
Codec ID : V_MPEG4/ISO/AVC
Duration : 1h 27mn
Bit rate : 2 919 Kbps
Width : 1 920 pixels
Height : 1 080 pixels
Display aspect ratio : 16:9
Frame rate mode : Constant
Frame rate : 23.976 fps
Color space : YUV
Chroma subsampling : 4:2:0
Bit depth : 8 bits
Scan type : Progressive
Bits/(Pixel*Frame) : 0.059
Stream size : 1.79 GiB (75%)
Writing library : x264 core
Default : Yes
Forced : No
Color primaries : BT.709
Transfer characteristics : BT.709
Matrix coefficients : BT.709
Audio #1
ID : 2
Format : AC-3
Format/Info : Audio Coding 3
Mode extension : CM (complete main)
Format settings, Endianness : Big
Codec ID : A_AC3
Duration : 1h 27mn
Bit rate mode : Constant
Bit rate : 448 Kbps
Channel count : 6 channels
Channel positions : Front: L C R, Side: L R, LFE
Sampling rate : 48.0 KHz
Bit depth : 16 bits
Compression mode : Lossy
Stream size : 281 MiB (12%)
Title : Audio Latino
Default : No
Forced : No
Audio #2
ID : 3
Format : AC-3
Format/Info : Audio Coding 3
Mode extension : CM (complete main)
Format settings, Endianness : Big
Codec ID : A_AC3
Duration : 1h 27mn
Bit rate mode : Constant
Bit rate : 448 Kbps
Channel count : 6 channels
Channel positions : Front: L C R, Side: L R, LFE
Sampling rate : 48.0 KHz
Bit depth : 16 bits
Compression mode : Lossy
Stream size : 281 MiB (12%)
Title : Audio Ingles
Default : No
Forced : No
Text #1
ID : 4
Format : VobSub
Muxing mode : zlib
Codec ID : S_VOBSUB
Codec ID/Info : The same subtitle format used on DVDs
Title : Subtitulos Latino
Default : No
Forced : No
Text #2
ID : 5
Format : VobSub
Muxing mode : zlib
Codec ID : S_VOBSUB
Codec ID/Info : The same subtitle format used on DVDs
Title : Subtitulos Ingles
Default : No
Forced : No
Text #3
ID : 6
Format : UTF-8
Codec ID : S_TEXT/UTF8
Codec ID/Info : UTF-8 Plain Text
Default : Yes
Forced : No








Code:
https://www.bigfile.to/file/QdRUUCBAMvDB/accofhd.part01.rar
https://www.bigfile.to/file/fRMgRyWkE4Qv/accofhd.part02.rar
https://www.bigfile.to/file/hdDg9sEKuf8F/accofhd.part03.rar
https://www.bigfile.to/file/DTUX6eeuZtPN/accofhd.part04.rar
https://www.bigfile.to/file/YZtSe4xfpnQV/accofhd.part05.rar
https://www.bigfile.to/file/vdQtZXzcEkTy/accofhd.part06.rar
https://www.bigfile.to/file/2hUxzA4mTZzB/accofhd.part07.rar
https://www.bigfile.to/file/Y4p3kPCP6pjm/accofhd.part08.rar
https://www.bigfile.to/file/Ev3ZW5f4eae3/accofhd.part09.rar
https://www.bigfile.to/file/9vAGVVRh34yS/accofhd.part10.rar