Eddie Izzard Live From Wembley (2009)







SPRiNTER proudly presents

Eddie.Izzard.Live.From.Wembley.2009.DVDRip.XviD-SPRiNTER
Code:
http://www.imdb.com/title/tt1470576/
Subtitles: None
Date: 2010.01

Director: Sarah Townsend
Genre: Comedy

Plot: Eddie Izzard, brings his wry wit and absurd observations in front of a
sold-out crowd of 44,000 over 4 nights at the Wembley Arena in London.
Eddie deals with important issues ranging from Medusa's hair care, fighting
sharks, dentistry, and the universal hatred of houseflies!

Cast

Eddie Izzard ... Himself

Release notes:

Enjoy!

Format: AVI
Format/Info: Audio Video Interleave
File size: 702 MiB
Duration: 1h 29mn
Overall bit rate: 1 096 Kbps
Writing application: VirtualDubMod 1.5.10.2 (build 2540/release)
Writing library: VirtualDubMod build 2540/release

Video
ID: 0
Format: MPEG-4 Visual
Format profile: AdvancedSimple@L5
Format settings, BVOP: Yes
Format settings, QPel: No
Format settings, GMC: No warppoints
Format settings, Matrix: Default (H.263)
Codec ID: XVID
Codec ID/Hint: XviD
Duration: 1h 29mn
Bit rate: 938 Kbps
Width: 576 pixels
Height: 320 pixels
Display aspect ratio: 16:9
Frame rate: 25.000 fps
Resolution: 24 bits
Colorimetry: 4:2:0
Scan type: Progressive
Bits/(Pixel*Frame): 0.203
Stream size: 600 MiB (86%)
Writing library: XviD 1.2.1 (UTC 2008-12-04)

Audio
ID: 1
Format: MPEG Audio
Format version: Version 1
Format profile: Layer 3
Codec ID: 55
Codec ID/Hint: MP3
Duration: 1h 29mn
Bit rate mode: Variable
Bit rate: 146 Kbps
Channel(s): 2 channels
Sampling rate: 48.0 KHz
Resolution: 16 bits
Stream size: 93.4 MiB (13%)
Alignment: Aligned on interleaves
Interleave, duration: 24 ms (0.60 video frame)
Interleave, preload duration: 126 ms
Writing library: LAME3.89 (alpha)


[img][/img]
[img][/img]




Code:
http://uploading.com/files/f269me94/WarezTheGFX_Eddie.Izzard.Live.From.Wembley.2009.DVDRip.XviD-SPRiNTER.part1.rar/
http://uploading.com/files/me91b9b4/WarezTheGFX_Eddie.Izzard.Live.From.Wembley.2009.DVDRip.XviD-SPRiNTER.part2.rar/
http://uploading.com/files/1ac5d9mm/WarezTheGFX_Eddie.Izzard.Live.From.Wembley.2009.DVDRip.XviD-SPRiNTER.part3.rar/
http://uploading.com/files/975m722m/WarezTheGFX_Eddie.Izzard.Live.From.Wembley.2009.DVDRip.XviD-SPRiNTER.part4.rar/


Code:
No Password!