Year One(2009)



Info:
Format : Matroska
File size : 4.37 GiB
Duration : 1h 36mn
Overall bit rate : 6 456 Kbps
Encoded date : UTC 2009-09-22 06:14:33
Writing application : mkvmerge v2.9.5 ('Tu es le seul') built on Jun 17 2009 16:28:30
Writing library : libebml v0.7.8 libmatroska v0.8.1

Video
ID : 1
Format : AVC
Format/Info : Advanced Video Codec
Format profile : High@L4.1
Format settings, CABAC : Yes
Format settings, ReFrames : 5 frames
Muxing mode : Container profile=Unknown@4.1
Codec ID : V_MPEG4/ISO/AVC
Duration : 1h 36mn
Bit rate : 4 817 Kbps
Nominal bit rate : 4 945 Kbps
Width : 1 280 pixels
Height : 688 pixels
Display aspect ratio : 1.860
Frame rate : 23.976 fps
Resolution : 24 bits
Colorimetry : 4:2:0
Scan type : Progressive
Bits/(Pixel*Frame) : 0.228
Stream size : 3.26 GiB (75%)
Writing library : x264 core 75 r1251 e553a4c

Audio
ID : 2
Format : DTS
Format/Info : Digital Theater Systems
Codec ID : A_DTS
Duration : 1h 36mn
Bit rate mode : Constant
Bit rate : 1 510 Kbps
Channel(s) : 6 channels
Channel positions : Front: L C R, Surround: L R, LFE
Sampling rate : 48.0 KHz
Resolution : 24 bits
Stream size : 1.02 GiB (23%)
Language : English

Text
ID : 3
Format : UTF-8
Codec ID : S_TEXT/UTF8
Codec ID/Info : UTF-8 Plain Text
Language : English
Screens:




Download:
Code:
http://rapidshare.com/files/339836593/Year.One.720p.WarezHome.in.part01.rar
http://rapidshare.com/files/339837302/Year.One.720p.WarezHome.in.part02.rar
http://rapidshare.com/files/339785842/Year.One.720p.WarezHome.in.part03.rar
http://rapidshare.com/files/339837190/Year.One.720p.WarezHome.in.part04.rar
http://rapidshare.com/files/339836849/Year.One.720p.WarezHome.in.part05.rar
http://rapidshare.com/files/339789851/Year.One.720p.WarezHome.in.part06.rar
http://rapidshare.com/files/339837581/Year.One.720p.WarezHome.in.part07.rar
http://rapidshare.com/files/339837082/Year.One.720p.WarezHome.in.part08.rar
http://rapidshare.com/files/339837091/Year.One.720p.WarezHome.in.part09.rar
http://rapidshare.com/files/339778679/Year.One.720p.WarezHome.in.part10.rar
http://rapidshare.com/files/339837278/Year.One.720p.WarezHome.in.part11.rar
http://rapidshare.com/files/339788321/Year.One.720p.WarezHome.in.part12.rar
http://rapidshare.com/files/339836864/Year.One.720p.WarezHome.in.part13.rar
http://rapidshare.com/files/339837650/Year.One.720p.WarezHome.in.part14.rar
http://rapidshare.com/files/339786177/Year.One.720p.WarezHome.in.part15.rar
http://rapidshare.com/files/339837352/Year.One.720p.WarezHome.in.part16.rar
http://rapidshare.com/files/339836623/Year.One.720p.WarezHome.in.part17.rar
http://rapidshare.com/files/339837259/Year.One.720p.WarezHome.in.part18.rar
http://rapidshare.com/files/339836740/Year.One.720p.WarezHome.in.part19.rar
http://rapidshare.com/files/339837509/Year.One.720p.WarezHome.in.part20.rar
http://rapidshare.com/files/339837152/Year.One.720p.WarezHome.in.part21.rar
http://rapidshare.com/files/339837318/Year.One.720p.WarezHome.in.part22.rar
http://rapidshare.com/files/339837431/Year.One.720p.WarezHome.in.part23.rar