The Spy Next.Door (2010)



Info:
Complete name : The.Spy.Next.Door.Cam.2010.TA.avi
Format : AVI
Format/Info : Audio Video Interleave
File size : 1.56 GiB
Duration : 1h 29mn
Overall bit rate : 2 501 Kbps
Writing library : VirtualDub build 32661/release

Video
ID : 0
Format : MPEG-4 Visual
Format profile : AdvancedSimple@L5
Format settings, BVOP : Yes
Format settings, QPel : No
Format settings, GMC : No warppoints
Format settings, Matrix : Custom
Muxing mode : Packed bitstream
Codec ID : XVID
Codec ID/Hint : XviD
Duration : 1h 29mn
Bit rate : 954 Kbps
Width : 640 pixels
Height : 360 pixels
Display aspect ratio : 16:9
Frame rate : 29.970 fps
Resolution : 24 bits
Colorimetry : 4:2:0
Scan type : Progressive
Bits/(Pixel*Frame) : 0.138
Stream size : 609 MiB (38%)
Writing library : XviD 1.2.1 (UTC 2008-12-04)

Audio
Format : PCM
Format settings, Endianness : Little
Format settings, Sign : Unsigned
Codec ID : 1
Codec ID/Hint : Microsoft
Duration : 1h 29mn
Bit rate mode : Constant
Bit rate : 1 536 Kbps
Channel(s) : 2 channels
Sampling rate : 48.0 KHz
Resolution : 16 bits
Stream size : 981 MiB (61%)
Interleave, duration : 33 ms (1.00 video frame)
Interleave, preload duration : 500 ms
Screens:






Download:
Code:
http://rapidshare.com/files/339602585/The_spy_next_door.2010.Cam.Xvid.WarezHome.in.part01.rar
http://rapidshare.com/files/339602699/The_spy_next_door.2010.Cam.Xvid.WarezHome.in.part02.rar
http://rapidshare.com/files/339622098/The_spy_next_door.2010.Cam.Xvid.WarezHome.in.part03.rar
http://rapidshare.com/files/339615491/The_spy_next_door.2010.Cam.Xvid.WarezHome.in.part04.rar
http://rapidshare.com/files/339622734/The_spy_next_door.2010.Cam.Xvid.WarezHome.in.part05.rar
http://rapidshare.com/files/339621322/The_spy_next_door.2010.Cam.Xvid.WarezHome.in.part06.rar
http://rapidshare.com/files/339611668/The_spy_next_door.2010.Cam.Xvid.WarezHome.in.part07.rar
http://rapidshare.com/files/339603069/The_spy_next_door.2010.Cam.Xvid.WarezHome.in.part08.rar
http://rapidshare.com/files/339623272/The_spy_next_door.2010.Cam.Xvid.WarezHome.in.part09.rar