Info:
IMBD:
Code:
http://www.imdb.com/title/tt1188729/
::::::::::: :::: :::: ::: :::::::: ::::::::::: :::: ::: ::::::::::
: : : : : : : : : : : : : : : : : : : : : : : : :
: : : : : : : : : : : : : :
# # : # # : # : :#: # # : # # : #
# # # # # # # # # # # # # #
# # # # # # # # # # # # # # # # # # # # # # #
########### ### ### ### ### ######## ########### ### #### ##########


************************************************** ****************************** ********************** Pandorum R5 LiNE XviD V2 - IMAGiNE
************************************************** ****************************** **********************

Ripper ...........: IMAGiNE IMDB Rating.......:6.1/10
Video Codec.......:XVID Release Date......:03/11/09
Audio Codec.......:MPEG Audio Theatre Date......:04/09/09
Audio Bitrate.....:128 Runtime...........:1h 30mn
Subtitles.........:NIL Language..........:ENGLISH
Resolution........:720 x 304
IMDb URL..........:
Code:
http://www.imdb.com/title/tt1188729/

DETAILS:
General
Complete name : C:\Documents and Settings\Pandorum R5 LiNE XviD V2 - IMAGiNE.avi
Format : AVI
Format/Info : Audio Video Interleave
File size : 1.38 GiB
Duration : 1h 43mn
Overall bit rate : 1 906 Kbps
Writing application : VirtualDubMod 1.5.10.2 (build 2540/release)
Writing library : VirtualDub build 32618/release

Video
ID : 0
Format : MPEG-4 Visual
Format profile : AdvancedSimple@L5
Format settings, BVOP : Yes
Format settings, QPel : No
Format settings, GMC : No warppoints
Format settings, Matrix : Default (MPEG)
Muxing mode : Packed bitstream
Codec ID : XVID
Codec ID/Hint : XviD
Duration : 1h 43mn
Bit rate : 1 768 Kbps
Width : 720 pixels
Height : 304 pixels
Display aspect ratio : 2.35:1
Frame rate : 25.000 fps
Resolution : 24 bits
Colorimetry : 4:2:0
Scan type : Progressive
Bits/(Pixel*Frame) : 0.323
Stream size : 1.28 GiB (93%)
Writing library : XviD 1.2.1 (UTC 2008-12-04)

Audio
ID : 1
Format : MPEG Audio
Format version : Version 1
Format profile : Layer 3
Format settings, Mode : Joint stereo / MS Stereo
Codec ID : 55
Codec ID/Hint : MP3
Duration : 1h 43mn
Bit rate mode : Constant
Bit rate : 128 Kbps
Channel(s) : 2 channels
Sampling rate : 48.0 KHz
Resolution : 16 bits
Stream size : 94.9 MiB (7%)
Alignment : Split accross interleaves
Interleave, duration : 40 ms (1.00 video frame)
Interleave, preload duration : 500 ms





NOTES:

IMAGiNE bringing you another release.....
Well here's the V2 this time round using the russian dvd9 ;-)
We yet again used our audio for this and thanks to ELEKTRI4KA for the video source.
For this release we used several filters to give it some more life.....and colour as it seemed
to lack some like most R5's......Also we noticed some video noise so we cleaned that up aswell
without losing any sharpness.
Screen:




Download:
Code:
http://rapidshare.com/files/328794809/uploader_devilmaycry_Pandorum_R5_LiNE_XviD_V2_-_IMAGiNE.avi.001
http://rapidshare.com/files/328797336/uploader_devilmaycry_Pandorum_R5_LiNE_XviD_V2_-_IMAGiNE.avi.002
http://rapidshare.com/files/328794248/uploader_devilmaycry_Pandorum_R5_LiNE_XviD_V2_-_IMAGiNE.avi.003
http://rapidshare.com/files/328797660/uploader_devilmaycry_Pandorum_R5_LiNE_XviD_V2_-_IMAGiNE.avi.004
http://rapidshare.com/files/328794591/uploader_devilmaycry_Pandorum_R5_LiNE_XviD_V2_-_IMAGiNE.avi.005
http://rapidshare.com/files/328797452/uploader_devilmaycry_Pandorum_R5_LiNE_XviD_V2_-_IMAGiNE.avi.006
http://rapidshare.com/files/328796702/uploader_devilmaycry_Pandorum_R5_LiNE_XviD_V2_-_IMAGiNE.avi.007
http://rapidshare.com/files/328794423/uploader_devilmaycry_Pandorum_R5_LiNE_XviD_V2_-_IMAGiNE.avi.008